Guest User

[Coldgirls] Sora yori mo Tooi Basho 03 [EE632974].mkv

a guest
Feb 6th, 2018
45
Never
Not a member of Pastebin yet? Sign Up, it unlocks many cool features!
  1. General
  2. Unique ID : 262540735595937856702505389891787754064 (0xC58381A56F025A84AA13960A794D0A50)
  3. Format : Matroska
  4. Format version : Version 4 / Version 2
  5. File size : 543 MiB
  6. Duration : 23 min 45 s
  7. Overall bit rate : 3 194 kb/s
  8. Encoded date : UTC 2018-01-24 04:36:28
  9. Writing application : mkvmerge v20.0.0 ('I Am The Sun') 64-bit
  10. Writing library : libebml v1.3.5 + libmatroska v1.4.8
  11. Attachments : AlexBrush-Regular.ttf / blzee.ttf / Bolide-Regular.ttf / DK Borrowdale.otf / EraserRegular.ttf / graviolasoft-medium.otf / graviolasoft-mediumitalic.otf / Handgley Regular.otf / IndieFlower.ttf / Montara-Gothic.otf / Roboto-Bold.ttf / Roboto-Regular.ttf / Rolina Bold.ttf / Signika-Bold.otf / Signika-Regular.otf / Station.ttf / Typo_Round_Regular_Demo.otf / Vollkorn-Bold.ttf / WCManoNegraBta.otf / A little sunshine.ttf / ac 2peas.ttf
  12.  
  13. Video
  14. ID : 1
  15. Format : AVC
  16. Format/Info : Advanced Video Codec
  17. Format profile : High 10@L5.1
  18. Format settings, CABAC : Yes
  19. Format settings, ReFrames : 16 frames
  20. Codec ID : V_MPEG4/ISO/AVC
  21. Duration : 23 min 45 s
  22. Bit rate : 3 045 kb/s
  23. Width : 1 920 pixels
  24. Height : 1 080 pixels
  25. Display aspect ratio : 16:9
  26. Frame rate mode : Constant
  27. Frame rate : 23.976 (24000/1001) FPS
  28. Color space : YUV
  29. Chroma subsampling : 4:2:0
  30. Bit depth : 10 bits
  31. Scan type : Progressive
  32. Bits/(Pixel*Frame) : 0.061
  33. Stream size : 517 MiB (95%)
  34. Writing library : x264 core 152 r2851 ba24899
  35. Encoding settings : cabac=1 / ref=16 / deblock=1:0:0 / analyse=0x3:0x133 / me=umh / subme=10 / psy=1 / psy_rd=1.00:0.00 / mixed_ref=1 / me_range=24 / chroma_me=1 / trellis=2 / 8x8dct=1 / cqm=0 / deadzone=21,11 / fast_pskip=1 / chroma_qp_offset=-2 / threads=12 / lookahead_threads=2 / sliced_threads=0 / nr=0 / decimate=1 / interlaced=0 / bluray_compat=0 / constrained_intra=0 / bframes=8 / b_pyramid=2 / b_adapt=2 / b_bias=0 / direct=3 / weightb=1 / open_gop=0 / weightp=2 / keyint=240 / keyint_min=23 / scenecut=40 / intra_refresh=0 / rc_lookahead=60 / rc=crf / mbtree=1 / crf=18.0 / qcomp=0.60 / qpmin=0 / qpmax=81 / qpstep=4 / ip_ratio=1.40 / aq=1:1.00
  36. Language : English
  37. Default : Yes
  38. Forced : No
  39.  
  40. Audio
  41. ID : 2
  42. Format : AAC
  43. Format/Info : Advanced Audio Codec
  44. Format profile : LC
  45. Codec ID : A_AAC
  46. Duration : 23 min 45 s
  47. Bit rate : 128 kb/s
  48. Channel(s) : 2 channels
  49. Channel positions : Front: L R
  50. Sampling rate : 44.1 kHz
  51. Frame rate : 43.066 FPS (1024 spf)
  52. Compression mode : Lossy
  53. Stream size : 21.7 MiB (4%)
  54. Language : Japanese
  55. Default : Yes
  56. Forced : No
  57.  
  58. Text #1
  59. ID : 3
  60. Format : ASS
  61. Codec ID : S_TEXT/ASS
  62. Codec ID/Info : Advanced Sub Station Alpha
  63. Duration : 23 min 7 s
  64. Bit rate : 3 351 b/s
  65. Count of elements : 1800
  66. Compression mode : Lossless
  67. Stream size : 568 KiB (0%)
  68. Language : English
  69. Default : Yes
  70. Forced : No
  71.  
  72. Text #2
  73. ID : 4
  74. Format : ASS
  75. Codec ID : S_TEXT/ASS
  76. Codec ID/Info : Advanced Sub Station Alpha
  77. Duration : 23 min 7 s
  78. Bit rate : 3 487 b/s
  79. Count of elements : 1865
  80. Compression mode : Lossless
  81. Stream size : 591 KiB (0%)
  82. Language : enm
  83. Default : No
  84. Forced : No
  85.  
  86. Menu
  87. 00:00:00.000 : en:Intro
  88. 00:00:16.030 : en:OP
  89. 00:01:46.040 : en:Part A
  90. 00:10:28.020 : en:Part B
  91. 00:22:00.000 : en:ED
  92. 00:23:30.010 : en:Outro
RAW Paste Data