SHARE
TWEET

[Nii-sama] Slow Start - 02 [720p][4C878CD6].mkv

a guest Jan 29th, 2018 37 Never
Not a member of Pastebin yet? Sign Up, it unlocks many cool features!
  1. General
  2. Unique ID                                : 183825584119998154732129190430967627998 (0x8A4B850B112230C08AB2457B3E6480DE)
  3. Format                                   : Matroska
  4. Format version                           : Version 4 / Version 2
  5. File size                                : 324 MiB
  6. Duration                                 : 23 min 45 s
  7. Overall bit rate                         : 1 905 kb/s
  8. Movie name                               : [Nii-sama] Slow Start - 02 [720p]
  9. Encoded date                             : UTC 2018-01-13 21:15:26
  10. Writing application                      : mkvmerge v14.0.0 ('Flow') 64bit
  11. Writing library                          : libebml v1.3.4 + libmatroska v1.4.5
  12. Attachments                              : badankadonk.ttf / BRLNSB.TTF / ChalkDust.ttf / CM Big Fat Paintbrush.ttf / coiny-regular.ttf / CREAMEXB.TTF / EraserRegular.ttf / gadugib.ttf / MATURASC.TTF / radgranny.ttf / second breakfast.ttf / SHOWG.TTF / GraviolaSoft-Medium.otf
  13.  
  14. Video
  15. ID                                       : 1
  16. Format                                   : AVC
  17. Format/Info                              : Advanced Video Codec
  18. Format profile                           : High@L4
  19. Format settings, CABAC                   : Yes
  20. Format settings, ReFrames                : 6 frames
  21. Codec ID                                 : V_MPEG4/ISO/AVC
  22. Duration                                 : 23 min 45 s
  23. Bit rate                                 : 1 776 kb/s
  24. Width                                    : 1 280 pixels
  25. Height                                   : 720 pixels
  26. Display aspect ratio                     : 16:9
  27. Frame rate mode                          : Variable
  28. Frame rate                               : 23.976 (23976/1000) FPS
  29. Color space                              : YUV
  30. Chroma subsampling                       : 4:2:0
  31. Bit depth                                : 8 bits
  32. Scan type                                : Progressive
  33. Bits/(Pixel*Frame)                       : 0.080
  34. Stream size                              : 300 MiB (93%)
  35. Writing library                          : x264 core 120 r2120 0c7dab9
  36. Encoding settings                        : cabac=1 / ref=6 / deblock=1:1:1 / analyse=0x3:0x113 / me=umh / subme=8 / psy=1 / psy_rd=0.40:0.00 / mixed_ref=1 / me_range=16 / chroma_me=1 / trellis=1 / 8x8dct=1 / cqm=0 / deadzone=21,11 / fast_pskip=1 / chroma_qp_offset=-2 / threads=4 / sliced_threads=0 / nr=0 / decimate=1 / interlaced=0 / bluray_compat=0 / constrained_intra=0 / bframes=3 / b_pyramid=2 / b_adapt=2 / b_bias=0 / direct=3 / weightb=1 / open_gop=0 / weightp=2 / keyint=250 / keyint_min=23 / scenecut=40 / intra_refresh=0 / rc_lookahead=50 / rc=2pass / mbtree=1 / bitrate=1776 / ratetol=1.0 / qcomp=0.60 / qpmin=0 / qpmax=69 / qpstep=4 / cplxblur=20.0 / qblur=0.5 / vbv_maxrate=3552 / vbv_bufsize=8880 / nal_hrd=none / ip_ratio=1.40 / aq=1:0.60
  37. Language                                 : Japanese
  38. Default                                  : Yes
  39. Forced                                   : No
  40.  
  41. Audio
  42. ID                                       : 2
  43. Format                                   : AAC
  44. Format/Info                              : Advanced Audio Codec
  45. Format profile                           : LC
  46. Codec ID                                 : A_AAC
  47. Duration                                 : 23 min 45 s
  48. Bit rate                                 : 128 kb/s
  49. Channel(s)                               : 2 channels
  50. Channel positions                        : Front: L R
  51. Sampling rate                            : 44.1 kHz
  52. Frame rate                               : 43.066 FPS (1024 spf)
  53. Compression mode                         : Lossy
  54. Stream size                              : 21.7 MiB (7%)
  55. Language                                 : Japanese
  56. Default                                  : Yes
  57. Forced                                   : No
  58.  
  59. Text
  60. ID                                       : 3
  61. Format                                   : ASS
  62. Codec ID                                 : S_TEXT/ASS
  63. Codec ID/Info                            : Advanced Sub Station Alpha
  64. Duration                                 : 21 min 56 s
  65. Bit rate                                 : 148 b/s
  66. Count of elements                        : 426
  67. Compression mode                         : Lossless
  68. Stream size                              : 23.8 KiB (0%)
  69. Title                                    : Nii-sama
  70. Language                                 : English
  71. Default                                  : Yes
  72. Forced                                   : No
  73.  
  74. Menu
  75. 00:00:00.000                             : en:START
  76. 00:01:27.000                             : en:OP
  77. 00:02:57.000                             : en:Part 1
  78. 00:12:32.000                             : en:Part 2
  79. 00:22:10.000                             : en:ED
  80. 00:23:40.000                             : en:Part 3
RAW Paste Data
We use cookies for various purposes including analytics. By continuing to use Pastebin, you agree to our use of cookies as described in the Cookies Policy. OK, I Understand
Top