Guest User

Untitled

a guest
May 18th, 2020
59
Never
Not a member of Pastebin yet? Sign Up, it unlocks many cool features!
  1. Общее
  2. Уникальный идентификатор : 178743161253724988660676029722432133060 (0x8678AE3FD1A0D698B04B2BFB027C57C4)
  3. Полное имя : D:\Раздача\Ne Beri V Golovu.2018.WEB-DLRip-AVC.ExKinoRay.mkv
  4. Формат : Matroska
  5. Версия формата : Version 4 / Version 2
  6. Размер файла : 2,27 Гбайт
  7. Продолжительность : 1 ч. 55 м.
  8. Общий поток : 2817 Кбит/сек
  9. Название фильма : Nevermind 2018 WEB-DLRip-AVC.grab777 & ExKinoRay
  10. Дата кодирования : UTC 2020-05-19 03:07:39
  11. Программа кодирования : mkvmerge v7.3.0 ('Nouages') 64bit built on Oct 22 2014 18:53:34
  12. Библиотека кодирования : libebml v1.3.0 + libmatroska v1.4.1
  13.  
  14. Видео
  15. Идентификатор : 1
  16. Формат : AVC
  17. Формат/Информация : Advanced Video Codec
  18. Профиль формата : High@L4.1
  19. Настройки формата : CABAC / 12 Ref Frames
  20. Параметр CABAC формата : Да
  21. Параметр RefFrames формата : 12 кадров
  22. Идентификатор кодека : V_MPEG4/ISO/AVC
  23. Продолжительность : 1 ч. 55 м.
  24. Битрейт : 2047 Кбит/сек
  25. Ширина : 1024 пикселя
  26. Высота : 432 пикселя
  27. Соотношение сторон : 2,40:1
  28. Соотношение сторон в оригинале : 2,40:1
  29. Режим частоты кадров : Постоянный
  30. Частота кадров : 25,000 кадров/сек
  31. Цветовое пространство : YUV
  32. Субдискретизация насыщенности : 4:2:0
  33. Битовая глубина : 8 бит
  34. Тип развёртки : Прогрессивная
  35. Бит/(Пиксели*Кадры) : 0.185
  36. Размер потока : 1,65 Гбайт (73%)
  37. Заголовок : Rip by grab777
  38. Библиотека кодирования : x264 core 148 r2665M a01e339
  39. Настройки программы : cabac=1 / ref=12 / deblock=1:-2:-2 / analyse=0x3:0x113 / me=umh / subme=10 / psy=1 / psy_rd=1.00:0.15 / mixed_ref=1 / me_range=32 / chroma_me=1 / trellis=2 / 8x8dct=1 / cqm=0 / deadzone=21,11 / fast_pskip=1 / chroma_qp_offset=-3 / threads=5 / lookahead_threads=1 / sliced_threads=0 / nr=0 / decimate=1 / interlaced=0 / bluray_compat=0 / constrained_intra=0 / bframes=10 / b_pyramid=2 / b_adapt=2 / b_bias=0 / direct=3 / weightb=1 / open_gop=0 / weightp=2 / keyint=250 / keyint_min=25 / scenecut=40 / intra_refresh=0 / rc_lookahead=40 / rc=crf / mbtree=0 / crf=17.0 / qcomp=0.60 / qpmin=0 / qpmax=69 / qpstep=4 / vbv_maxrate=30000 / vbv_bufsize=40000 / crf_max=0.0 / nal_hrd=none / filler=0 / ip_ratio=1.40 / pb_ratio=1.30 / aq=1:1.00
  40. Язык : English
  41. Default : Да
  42. Forced : Нет
  43. Цветовой диапазон : Limited
  44. Основные цвета : BT.709
  45. Характеристики трансфера : BT.709
  46. Коэффициенты матрицы : BT.709
  47.  
  48. Аудио #1
  49. Идентификатор : 2
  50. Формат : AC-3
  51. Формат/Информация : Audio Coding 3
  52. Параметр Endianness формата : Big
  53. Идентификатор кодека : A_AC3
  54. Продолжительность : 1 ч. 55 м.
  55. Вид битрейта : Постоянный
  56. Битрейт : 384 Кбит/сек
  57. Каналы : 6 каналов
  58. Расположение каналов : Front: L C R, Side: L R, LFE
  59. Частота : 48,0 КГц
  60. Частота кадров : 31,250 кадров/сек (1536 SPF)
  61. Битовая глубина : 16 бит
  62. Метод сжатия : С потерями
  63. Размер потока : 316 Мбайт (14%)
  64. Заголовок : MVO (iTunes)
  65. Язык : Russian
  66. ServiceKind/String : Complete Main
  67. Default : Да
  68. Forced : Да
  69.  
  70. Аудио #2
  71. Идентификатор : 3
  72. Формат : AC-3
  73. Формат/Информация : Audio Coding 3
  74. Параметр Endianness формата : Big
  75. Идентификатор кодека : A_AC3
  76. Продолжительность : 1 ч. 55 м.
  77. Вид битрейта : Постоянный
  78. Битрейт : 384 Кбит/сек
  79. Каналы : 6 каналов
  80. Расположение каналов : Front: L C R, Side: L R, LFE
  81. Частота : 48,0 КГц
  82. Частота кадров : 31,250 кадров/сек (1536 SPF)
  83. Битовая глубина : 16 бит
  84. Метод сжатия : С потерями
  85. Размер потока : 316 Мбайт (14%)
  86. Заголовок : Original
  87. Язык : Italian
  88. ServiceKind/String : Complete Main
  89. Default : Нет
  90. Forced : Нет
  91.  
  92. Текст
  93. Идентификатор : 4
  94. Формат : UTF-8
  95. Идентификатор кодека : S_TEXT/UTF8
  96. Идентификатор кодека/Информация : UTF-8 Plain Text
  97. Продолжительность : 1 ч. 47 м.
  98. Битрейт : 88 бит/сек
  99. ElementCount : 1204
  100. Размер потока : 69,6 Кбайт (0%)
  101. Заголовок : Full-length
  102. Язык : Russian
  103. Default : Нет
  104. Forced : Нет
  105.  
  106. Меню
  107. 00:00:00.000 : :Глава 1
  108. 00:08:39.640 : :Глава 2
  109. 00:16:51.760 : :Глава 3
  110. 00:21:53.520 : :Глава 4
  111. 00:26:51.840 : :Глава 5
  112. 00:34:01.000 : :Глава 6
  113. 00:40:15.280 : :Глава 7
  114. 00:48:13.520 : :Глава 8
  115. 00:55:14.120 : :Глава 9
  116. 01:02:18.480 : :Глава 10
  117. 01:08:36.120 : :Глава 11
  118. 01:15:26.640 : :Глава 12
  119. 01:21:35.960 : :Глава 13
  120. 01:26:59.720 : :Глава 14
  121. 01:33:16.920 : :Глава 15
  122. 01:38:48.840 : :Глава 16
  123. 01:45:26.960 : :Глава 17
RAW Paste Data