SHARE
TWEET

ca

mehenuf06 Nov 12th, 2019 73 Never
Not a member of Pastebin yet? Sign Up, it unlocks many cool features!
  1. General
  2. Unique ID                                : 268806609284876904033983275113453869753 (0xCA3A451213E6DA9C3AD71C96D2CA5AB9)
  3. Complete name                            : E:\Charlies Angels 2000 1080p BluRay DTS x264-WiNT3R.mkv
  4. Format                                   : Matroska
  5. Format version                           : Version 4
  6. File size                                : 5.03 GiB
  7. Duration                                 : 1 h 38 min
  8. Overall bit rate                         : 7 320 kb/s
  9. Movie name                               : Charlies Angels 2000 1080p BluRay DTS x264-WiNT3R
  10. Encoded date                             : UTC 2019-11-12 18:00:56
  11. Writing application                      : mkvmerge v40.0.0 ('Old Town Road + Pony') 64-bit
  12. Writing library                          : libebml v1.3.9 + libmatroska v1.5.2
  13.  
  14. Video
  15. ID                                       : 1
  16. Format                                   : AVC
  17. Format/Info                              : Advanced Video Codec
  18. Format profile                           : High 10@L4.1
  19. Format settings                          : CABAC / 3 Ref Frames
  20. Format settings, CABAC                   : Yes
  21. Format settings, Reference frames        : 3 frames
  22. Codec ID                                 : V_MPEG4/ISO/AVC
  23. Duration                                 : 1 h 38 min
  24. Bit rate                                 : 5 782 kb/s
  25. Width                                    : 1 920 pixels
  26. Height                                   : 800 pixels
  27. Display aspect ratio                     : 2.40:1
  28. Frame rate mode                          : Constant
  29. Frame rate                               : 23.976 (24000/1001) FPS
  30. Color space                              : YUV
  31. Chroma subsampling                       : 4:2:0
  32. Bit depth                                : 10 bits
  33. Scan type                                : Progressive
  34. Bits/(Pixel*Frame)                       : 0.157
  35. Stream size                              : 3.97 GiB (79%)
  36. Writing library                          : x264 core 148
  37. Encoding settings                        : cabac=1 / ref=3 / deblock=1:-1:-1 / analyse=0x3:0 / me=hex / subme=5 / psy=1 / psy_rd=1.00:0.00 / mixed_ref=0 / me_range=16 / chroma_me=1 / trellis=1 / 8x8dct=1 / cqm=0 / deadzone=21,11 / fast_pskip=0 / chroma_qp_offset=0 / threads=4 / lookahead_threads=1 / sliced_threads=0 / nr=0 / decimate=1 / interlaced=0 / bluray_compat=0 / constrained_intra=0 / bframes=2 / b_pyramid=0 / b_adapt=1 / b_bias=0 / direct=1 / weightb=0 / open_gop=0 / weightp=0 / keyint=24 / keyint_min=2 / scenecut=40 / intra_refresh=0 / rc=crf / mbtree=0 / crf=23.0 / qcomp=0.60 / qpmin=0 / qpmax=81 / qpstep=4 / ip_ratio=1.40 / pb_ratio=1.30 / aq=1:1.00
  38. Default                                  : Yes
  39. Forced                                   : No
  40. Color range                              : Limited
  41. Color primaries                          : BT.709
  42. Transfer characteristics                 : BT.709
  43. Matrix coefficients                      : BT.709
  44.  
  45. Audio
  46. ID                                       : 2
  47. Format                                   : DTS
  48. Format/Info                              : Digital Theater Systems
  49. Codec ID                                 : A_DTS
  50. Duration                                 : 1 h 38 min
  51. Bit rate mode                            : Constant
  52. Bit rate                                 : 1 509 kb/s
  53. Channel(s)                               : 6 channels
  54. Channel layout                           : C L R Ls Rs LFE
  55. Sampling rate                            : 48.0 kHz
  56. Frame rate                               : 93.750 FPS (512 SPF)
  57. Bit depth                                : 24 bits
  58. Compression mode                         : Lossy
  59. Stream size                              : 1.04 GiB (21%)
  60. Language                                 : English
  61. Default                                  : Yes
  62. Forced                                   : No
  63.  
  64. Text #1
  65. ID                                       : 3
  66. Format                                   : UTF-8
  67. Codec ID                                 : S_TEXT/UTF8
  68. Codec ID/Info                            : UTF-8 Plain Text
  69. Duration                                 : 11 s 511 ms
  70. Bit rate                                 : 97 b/s
  71. Count of elements                        : 4
  72. Stream size                              : 141 Bytes (0%)
  73. Language                                 : English
  74. Default                                  : Yes
  75. Forced                                   : No
  76.  
  77. Text #2
  78. ID                                       : 4
  79. Format                                   : UTF-8
  80. Codec ID                                 : S_TEXT/UTF8
  81. Codec ID/Info                            : UTF-8 Plain Text
  82. Duration                                 : 1 h 37 min
  83. Bit rate                                 : 54 b/s
  84. Count of elements                        : 1197
  85. Stream size                              : 38.9 KiB (0%)
  86. Language                                 : English
  87. Default                                  : No
  88. Forced                                   : No
  89.  
  90. Text #3
  91. ID                                       : 5
  92. Format                                   : UTF-8
  93. Codec ID                                 : S_TEXT/UTF8
  94. Codec ID/Info                            : UTF-8 Plain Text
  95. Duration                                 : 1 h 37 min
  96. Bit rate                                 : 60 b/s
  97. Count of elements                        : 1365
  98. Stream size                              : 43.6 KiB (0%)
  99. Language                                 : English
  100. Default                                  : No
  101. Forced                                   : No
  102.  
  103. Text #4
  104. ID                                       : 6
  105. Format                                   : PGS
  106. Codec ID                                 : S_HDMV/PGS
  107. Codec ID/Info                            : Picture based subtitle format used on BDs/HD-DVDs
  108. Bit rate                                 : 0 b/s
  109. Count of elements                        : 0
  110. Stream size                              : 0.00 Byte (0%)
  111. Language                                 : English
  112. Default                                  : No
  113. Forced                                   : No
  114.  
  115. Text #5
  116. ID                                       : 7
  117. Format                                   : PGS
  118. Codec ID                                 : S_HDMV/PGS
  119. Codec ID/Info                            : Picture based subtitle format used on BDs/HD-DVDs
  120. Bit rate                                 : 0 b/s
  121. Count of elements                        : 1
  122. Stream size                              : 3.89 MiB (0%)
  123. Language                                 : English
  124. Default                                  : No
  125. Forced                                   : No
  126.  
  127. Text #6
  128. ID                                       : 8
  129. Format                                   : PGS
  130. Codec ID                                 : S_HDMV/PGS
  131. Codec ID/Info                            : Picture based subtitle format used on BDs/HD-DVDs
  132. Bit rate                                 : 0 b/s
  133. Count of elements                        : 1
  134. Stream size                              : 8.31 MiB (0%)
  135. Language                                 : English
  136. Default                                  : No
  137. Forced                                   : No
  138.  
  139. Text #7
  140. ID                                       : 9
  141. Format                                   : PGS
  142. Codec ID                                 : S_HDMV/PGS
  143. Codec ID/Info                            : Picture based subtitle format used on BDs/HD-DVDs
  144. Bit rate                                 : 0 b/s
  145. Count of elements                        : 1
  146. Stream size                              : 6.73 MiB (0%)
  147. Language                                 : English
  148. Default                                  : No
  149. Forced                                   : No
  150.  
  151. Text #8
  152. ID                                       : 10
  153. Format                                   : PGS
  154. Codec ID                                 : S_HDMV/PGS
  155. Codec ID/Info                            : Picture based subtitle format used on BDs/HD-DVDs
  156. Bit rate                                 : 0 b/s
  157. Count of elements                        : 0
  158. Stream size                              : 0.00 Byte (0%)
  159. Language                                 : English
  160. Default                                  : No
  161. Forced                                   : No
  162.  
  163. Menu
  164. 00:00:00.000                             : en:Chapter 01
  165. 00:06:55.998                             : en:Chapter 02
  166. 00:08:17.205                             : en:Chapter 03
  167. 00:11:32.358                             : en:Chapter 04
  168. 00:15:05.571                             : en:Chapter 05
  169. 00:23:14.601                             : en:Chapter 06
  170. 00:31:17.208                             : en:Chapter 07
  171. 00:37:25.993                             : en:Chapter 08
  172. 00:48:38.457                             : en:Chapter 09
  173. 00:55:38.543                             : en:Chapter 10
  174. 01:00:44.641                             : en:Chapter 11
  175. 01:03:02.737                             : en:Chapter 12
  176. 01:09:22.700                             : en:Chapter 13
  177. 01:15:41.870                             : en:Chapter 14
  178. 01:23:08.233                             : en:Chapter 15
  179. 01:28:14.747                             : en:Chapter 16
RAW Paste Data
We use cookies for various purposes including analytics. By continuing to use Pastebin, you agree to our use of cookies as described in the Cookies Policy. OK, I Understand
Not a member of Pastebin yet?
Sign Up, it unlocks many cool features!
 
Top