TheRealDudeMe

Untitled

Oct 29th, 2019
283
Never
Not a member of Pastebin yet? Sign Up, it unlocks many cool features!
  1. General
  2. Unique ID : 291010619936804918721093087894512168940 (0xDAEE9B51280A9ED903718673CBAD6FEC)
  3. Complete name : Terminator.Salvation.2009.2160p.UHD.BluRay.REMUX.HDR.HEVC.DTS-HD.MA.5.1-EPSiLON.mkv
  4. Format : Matroska
  5. Format version : Version 4 / Version 2
  6. File size : 41.5 GiB
  7. Duration : 1h 54mn
  8. Overall bit rate : 51.8 Mbps
  9. Movie name : Terminator Salvation (2009)
  10. Encoded date : UTC 2019-10-28 17:20:30
  11. Writing application : mkvmerge v38.0.0 ('The Silent Type') 64-bit
  12. Writing library : libebml v1.3.9 + libmatroska v1.5.2
  13. IMDB : tt0438488
  14. TMDB : movie/534
  15.  
  16. Video
  17. ID : 1
  18. Format : HEVC
  19. Format/Info : High Efficiency Video Coding
  20. Format profile : Main 10@L5.1@High
  21. Codec ID : V_MPEGH/ISO/HEVC
  22. Duration : 1h 54mn
  23. Bit rate : 48.2 Mbps
  24. Width : 3 840 pixels
  25. Height : 2 160 pixels
  26. Display aspect ratio : 16:9
  27. Frame rate mode : Constant
  28. Frame rate : 23.976 (24000/1001) fps
  29. Color space : YUV
  30. Chroma subsampling : 4:2:0
  31. Bit depth : 10 bits
  32. Bits/(Pixel*Frame) : 0.243
  33. Stream size : 38.7 GiB (93%)
  34. Title : MPEG-H HEVC Video / 48239 kbps / 2160p / 23.976 fps / 16:9 / Main 10 @ Level 5.1 @ High / 10 bits / HDR10 / BT.2020
  35. Language : English
  36. Default : Yes
  37. Forced : No
  38. Color range : Limited
  39. Color primaries : BT.2020
  40. Matrix coefficients : BT.2020 non-constant
  41.  
  42. Audio #1
  43. ID : 2
  44. Format : DTS
  45. Format/Info : Digital Theater Systems
  46. Format profile : MA / Core
  47. Mode : 16
  48. Format settings, Endianness : Big
  49. Codec ID : A_DTS
  50. Duration : 1h 54mn
  51. Bit rate mode : Variable / Constant
  52. Bit rate : 2 424 Kbps / 1 509 Kbps
  53. Channel(s) : 6 channels
  54. Channel positions : Front: L C R, Side: L R, LFE
  55. Sampling rate : 48.0 KHz
  56. Frame rate : 93.750 fps (512 spf)
  57. Bit depth : 16 bits
  58. Compression mode : Lossless / Lossy
  59. Stream size : 1.94 GiB (5%)
  60. Title : DTS-HD Master Audio / 5.1 / 48 kHz / 2424 kbps / 16-bit
  61. Language : English
  62. Default : Yes
  63. Forced : No
  64.  
  65. Audio #2
  66. ID : 3
  67. Format : DTS
  68. Format/Info : Digital Theater Systems
  69. Format profile : Express
  70. Mode : 16
  71. Format settings, Endianness : Big
  72. Codec ID : A_DTS
  73. Duration : 1h 54mn
  74. Bit rate mode : Constant
  75. Bit rate : 192 Kbps
  76. Channel(s) : 2 channels
  77. Channel positions : Front: L R
  78. Sampling rate : 48.0 KHz
  79. Frame rate : 11.719 fps (4096 spf)
  80. Bit depth : 16 bits
  81. Compression mode : Lossy
  82. Delay relative to video : 61ms
  83. Stream size : 158 MiB (0%)
  84. Title : Commentary by director McG
  85. Language : English
  86. Default : No
  87. Forced : No
  88.  
  89. Text #1
  90. ID : 4
  91. Format : PGS
  92. Codec ID : S_HDMV/PGS
  93. Codec ID/Info : Picture based subtitle format used on BDs/HD-DVDs
  94. Duration : 1h 44mn
  95. Bit rate : 18.4 Kbps
  96. Count of elements : 1558
  97. Stream size : 13.8 MiB (0%)
  98. Language : English
  99. Default : No
  100. Forced : No
  101.  
  102. Text #2
  103. ID : 5
  104. Format : PGS
  105. Codec ID : S_HDMV/PGS
  106. Codec ID/Info : Picture based subtitle format used on BDs/HD-DVDs
  107. Duration : 1h 46mn
  108. Bit rate : 23.5 Kbps
  109. Count of elements : 2145
  110. Stream size : 17.9 MiB (0%)
  111. Title : SDH
  112. Language : English
  113. Default : No
  114. Forced : No
  115.  
  116. Text #3
  117. ID : 6
  118. Format : PGS
  119. Codec ID : S_HDMV/PGS
  120. Codec ID/Info : Picture based subtitle format used on BDs/HD-DVDs
  121. Duration : 1h 44mn
  122. Bit rate : 10.7 Kbps
  123. Count of elements : 1650
  124. Stream size : 8.02 MiB (0%)
  125. Language : Arabic
  126. Default : No
  127. Forced : No
  128.  
  129. Text #4
  130. ID : 7
  131. Format : PGS
  132. Codec ID : S_HDMV/PGS
  133. Codec ID/Info : Picture based subtitle format used on BDs/HD-DVDs
  134. Duration : 1h 45mn
  135. Bit rate : 16.1 Kbps
  136. Count of elements : 1566
  137. Stream size : 12.2 MiB (0%)
  138. Language : Bulgarian
  139. Default : No
  140. Forced : No
  141.  
  142. Text #5
  143. ID : 8
  144. Format : PGS
  145. Codec ID : S_HDMV/PGS
  146. Codec ID/Info : Picture based subtitle format used on BDs/HD-DVDs
  147. Duration : 1h 44mn
  148. Bit rate : 15.5 Kbps
  149. Count of elements : 1634
  150. Stream size : 11.7 MiB (0%)
  151. Language : Chinese
  152. Default : No
  153. Forced : No
  154.  
  155. Text #6
  156. ID : 9
  157. Format : PGS
  158. Codec ID : S_HDMV/PGS
  159. Codec ID/Info : Picture based subtitle format used on BDs/HD-DVDs
  160. Duration : 1h 44mn
  161. Bit rate : 15.4 Kbps
  162. Count of elements : 1634
  163. Stream size : 11.5 MiB (0%)
  164. Language : Chinese
  165. Default : No
  166. Forced : No
  167.  
  168. Text #7
  169. ID : 10
  170. Format : PGS
  171. Codec ID : S_HDMV/PGS
  172. Codec ID/Info : Picture based subtitle format used on BDs/HD-DVDs
  173. Duration : 1h 44mn
  174. Bit rate : 16.1 Kbps
  175. Count of elements : 1656
  176. Stream size : 12.1 MiB (0%)
  177. Language : Croatian
  178. Default : No
  179. Forced : No
  180.  
  181. Text #8
  182. ID : 11
  183. Format : PGS
  184. Codec ID : S_HDMV/PGS
  185. Codec ID/Info : Picture based subtitle format used on BDs/HD-DVDs
  186. Duration : 1h 52mn
  187. Bit rate : 15.1 Kbps
  188. Count of elements : 1600
  189. Stream size : 12.1 MiB (0%)
  190. Language : Czech
  191. Default : No
  192. Forced : No
  193.  
  194. Text #9
  195. ID : 12
  196. Format : PGS
  197. Codec ID : S_HDMV/PGS
  198. Codec ID/Info : Picture based subtitle format used on BDs/HD-DVDs
  199. Duration : 1h 44mn
  200. Bit rate : 17.6 Kbps
  201. Count of elements : 1498
  202. Stream size : 13.2 MiB (0%)
  203. Language : Danish
  204. Default : No
  205. Forced : No
  206.  
  207. Text #10
  208. ID : 13
  209. Format : PGS
  210. Codec ID : S_HDMV/PGS
  211. Codec ID/Info : Picture based subtitle format used on BDs/HD-DVDs
  212. Duration : 1h 52mn
  213. Bit rate : 17.5 Kbps
  214. Count of elements : 1526
  215. Stream size : 14.1 MiB (0%)
  216. Language : Dutch
  217. Default : No
  218. Forced : No
  219.  
  220. Text #11
  221. ID : 14
  222. Format : PGS
  223. Codec ID : S_HDMV/PGS
  224. Codec ID/Info : Picture based subtitle format used on BDs/HD-DVDs
  225. Duration : 1h 44mn
  226. Bit rate : 19.0 Kbps
  227. Count of elements : 1560
  228. Stream size : 14.2 MiB (0%)
  229. Language : Estonian
  230. Default : No
  231. Forced : No
  232.  
  233. Text #12
  234. ID : 15
  235. Format : PGS
  236. Codec ID : S_HDMV/PGS
  237. Codec ID/Info : Picture based subtitle format used on BDs/HD-DVDs
  238. Duration : 1h 44mn
  239. Bit rate : 16.5 Kbps
  240. Count of elements : 1510
  241. Stream size : 12.4 MiB (0%)
  242. Language : Finnish
  243. Default : No
  244. Forced : No
  245.  
  246. Text #13
  247. ID : 16
  248. Format : PGS
  249. Codec ID : S_HDMV/PGS
  250. Codec ID/Info : Picture based subtitle format used on BDs/HD-DVDs
  251. Duration : 1h 52mn
  252. Bit rate : 14.7 Kbps
  253. Count of elements : 1606
  254. Stream size : 11.9 MiB (0%)
  255. Language : French
  256. Default : No
  257. Forced : No
  258.  
  259. Text #14
  260. ID : 17
  261. Format : PGS
  262. Codec ID : S_HDMV/PGS
  263. Codec ID/Info : Picture based subtitle format used on BDs/HD-DVDs
  264. Duration : 1h 44mn
  265. Bit rate : 19.8 Kbps
  266. Count of elements : 1760
  267. Stream size : 14.9 MiB (0%)
  268. Language : German
  269. Default : No
  270. Forced : No
  271.  
  272. Text #15
  273. ID : 18
  274. Format : PGS
  275. Codec ID : S_HDMV/PGS
  276. Codec ID/Info : Picture based subtitle format used on BDs/HD-DVDs
  277. Duration : 1h 44mn
  278. Bit rate : 18.9 Kbps
  279. Count of elements : 1560
  280. Stream size : 14.2 MiB (0%)
  281. Language : Greek
  282. Default : No
  283. Forced : No
  284.  
  285. Text #16
  286. ID : 19
  287. Format : PGS
  288. Codec ID : S_HDMV/PGS
  289. Codec ID/Info : Picture based subtitle format used on BDs/HD-DVDs
  290. Duration : 1h 44mn
  291. Bit rate : 13.1 Kbps
  292. Count of elements : 1600
  293. Stream size : 9.85 MiB (0%)
  294. Language : Hebrew
  295. Default : No
  296. Forced : No
  297.  
  298. Text #17
  299. ID : 20
  300. Format : PGS
  301. Codec ID : S_HDMV/PGS
  302. Codec ID/Info : Picture based subtitle format used on BDs/HD-DVDs
  303. Duration : 1h 52mn
  304. Bit rate : 14.6 Kbps
  305. Count of elements : 1652
  306. Stream size : 11.8 MiB (0%)
  307. Language : Hindi
  308. Default : No
  309. Forced : No
  310.  
  311. Text #18
  312. ID : 21
  313. Format : PGS
  314. Codec ID : S_HDMV/PGS
  315. Codec ID/Info : Picture based subtitle format used on BDs/HD-DVDs
  316. Duration : 1h 52mn
  317. Bit rate : 15.6 Kbps
  318. Count of elements : 1568
  319. Stream size : 12.6 MiB (0%)
  320. Language : Hungarian
  321. Default : No
  322. Forced : No
  323.  
  324. Text #19
  325. ID : 22
  326. Format : PGS
  327. Codec ID : S_HDMV/PGS
  328. Codec ID/Info : Picture based subtitle format used on BDs/HD-DVDs
  329. Duration : 1h 44mn
  330. Bit rate : 17.3 Kbps
  331. Count of elements : 1520
  332. Stream size : 13.0 MiB (0%)
  333. Language : Icelandic
  334. Default : No
  335. Forced : No
  336.  
  337. Text #20
  338. ID : 23
  339. Format : PGS
  340. Codec ID : S_HDMV/PGS
  341. Codec ID/Info : Picture based subtitle format used on BDs/HD-DVDs
  342. Duration : 1h 44mn
  343. Bit rate : 21.4 Kbps
  344. Count of elements : 1696
  345. Stream size : 16.0 MiB (0%)
  346. Language : Indonesian
  347. Default : No
  348. Forced : No
  349.  
  350. Text #21
  351. ID : 24
  352. Format : PGS
  353. Codec ID : S_HDMV/PGS
  354. Codec ID/Info : Picture based subtitle format used on BDs/HD-DVDs
  355. Duration : 1h 44mn
  356. Bit rate : 20.7 Kbps
  357. Count of elements : 1640
  358. Stream size : 15.5 MiB (0%)
  359. Language : Italian
  360. Default : No
  361. Forced : No
  362.  
  363. Text #22
  364. ID : 25
  365. Format : PGS
  366. Codec ID : S_HDMV/PGS
  367. Codec ID/Info : Picture based subtitle format used on BDs/HD-DVDs
  368. Duration : 1h 44mn
  369. Bit rate : 17.4 Kbps
  370. Count of elements : 1624
  371. Stream size : 13.1 MiB (0%)
  372. Language : Lithuanian
  373. Default : No
  374. Forced : No
  375.  
  376. Text #23
  377. ID : 26
  378. Format : PGS
  379. Codec ID : S_HDMV/PGS
  380. Codec ID/Info : Picture based subtitle format used on BDs/HD-DVDs
  381. Duration : 1h 52mn
  382. Bit rate : 14.4 Kbps
  383. Count of elements : 1512
  384. Stream size : 11.6 MiB (0%)
  385. Language : Norwegian
  386. Default : No
  387. Forced : No
  388.  
  389. Text #24
  390. ID : 27
  391. Format : PGS
  392. Codec ID : S_HDMV/PGS
  393. Codec ID/Info : Picture based subtitle format used on BDs/HD-DVDs
  394. Duration : 1h 52mn
  395. Bit rate : 16.1 Kbps
  396. Count of elements : 1604
  397. Stream size : 13.0 MiB (0%)
  398. Language : Polish
  399. Default : No
  400. Forced : No
  401.  
  402. Text #25
  403. ID : 28
  404. Format : PGS
  405. Codec ID : S_HDMV/PGS
  406. Codec ID/Info : Picture based subtitle format used on BDs/HD-DVDs
  407. Duration : 1h 53mn
  408. Bit rate : 15.7 Kbps
  409. Count of elements : 1598
  410. Stream size : 12.8 MiB (0%)
  411. Language : Portuguese
  412. Default : No
  413. Forced : No
  414.  
  415. Text #26
  416. ID : 29
  417. Format : PGS
  418. Codec ID : S_HDMV/PGS
  419. Codec ID/Info : Picture based subtitle format used on BDs/HD-DVDs
  420. Duration : 1h 53mn
  421. Bit rate : 18.4 Kbps
  422. Count of elements : 1660
  423. Stream size : 14.9 MiB (0%)
  424. Language : Portuguese
  425. Default : No
  426. Forced : No
  427.  
  428. Text #27
  429. ID : 30
  430. Format : PGS
  431. Codec ID : S_HDMV/PGS
  432. Codec ID/Info : Picture based subtitle format used on BDs/HD-DVDs
  433. Duration : 1h 53mn
  434. Bit rate : 17.5 Kbps
  435. Count of elements : 1620
  436. Stream size : 14.2 MiB (0%)
  437. Language : Romanian
  438. Default : No
  439. Forced : No
  440.  
  441. Text #28
  442. ID : 31
  443. Format : PGS
  444. Codec ID : S_HDMV/PGS
  445. Codec ID/Info : Picture based subtitle format used on BDs/HD-DVDs
  446. Duration : 1h 52mn
  447. Bit rate : 18.9 Kbps
  448. Count of elements : 1714
  449. Stream size : 15.2 MiB (0%)
  450. Language : Russian
  451. Default : No
  452. Forced : No
  453.  
  454. Text #29
  455. ID : 32
  456. Format : PGS
  457. Codec ID : S_HDMV/PGS
  458. Codec ID/Info : Picture based subtitle format used on BDs/HD-DVDs
  459. Duration : 1h 44mn
  460. Bit rate : 15.2 Kbps
  461. Count of elements : 1630
  462. Stream size : 11.4 MiB (0%)
  463. Language : Serbian
  464. Default : No
  465. Forced : No
  466.  
  467. Text #30
  468. ID : 33
  469. Format : PGS
  470. Codec ID : S_HDMV/PGS
  471. Codec ID/Info : Picture based subtitle format used on BDs/HD-DVDs
  472. Duration : 1h 44mn
  473. Bit rate : 18.3 Kbps
  474. Count of elements : 1650
  475. Stream size : 13.7 MiB (0%)
  476. Language : Slovak
  477. Default : No
  478. Forced : No
  479.  
  480. Text #31
  481. ID : 34
  482. Format : PGS
  483. Codec ID : S_HDMV/PGS
  484. Codec ID/Info : Picture based subtitle format used on BDs/HD-DVDs
  485. Duration : 1h 44mn
  486. Bit rate : 17.2 Kbps
  487. Count of elements : 1650
  488. Stream size : 12.9 MiB (0%)
  489. Language : Slovenian
  490. Default : No
  491. Forced : No
  492.  
  493. Text #32
  494. ID : 35
  495. Format : PGS
  496. Codec ID : S_HDMV/PGS
  497. Codec ID/Info : Picture based subtitle format used on BDs/HD-DVDs
  498. Duration : 1h 52mn
  499. Bit rate : 16.1 Kbps
  500. Count of elements : 1572
  501. Stream size : 13.0 MiB (0%)
  502. Language : Spanish
  503. Default : No
  504. Forced : No
  505.  
  506. Text #33
  507. ID : 36
  508. Format : PGS
  509. Codec ID : S_HDMV/PGS
  510. Codec ID/Info : Picture based subtitle format used on BDs/HD-DVDs
  511. Duration : 1h 53mn
  512. Bit rate : 17.3 Kbps
  513. Count of elements : 1618
  514. Stream size : 14.1 MiB (0%)
  515. Language : Spanish
  516. Default : No
  517. Forced : No
  518.  
  519. Text #34
  520. ID : 37
  521. Format : PGS
  522. Codec ID : S_HDMV/PGS
  523. Codec ID/Info : Picture based subtitle format used on BDs/HD-DVDs
  524. Duration : 1h 44mn
  525. Bit rate : 16.7 Kbps
  526. Count of elements : 1572
  527. Stream size : 12.5 MiB (0%)
  528. Language : Swedish
  529. Default : No
  530. Forced : No
  531.  
  532. Text #35
  533. ID : 38
  534. Format : PGS
  535. Codec ID : S_HDMV/PGS
  536. Codec ID/Info : Picture based subtitle format used on BDs/HD-DVDs
  537. Duration : 1h 44mn
  538. Bit rate : 17.9 Kbps
  539. Count of elements : 1650
  540. Stream size : 13.4 MiB (0%)
  541. Language : Thai
  542. Default : No
  543. Forced : No
  544.  
  545. Text #36
  546. ID : 39
  547. Format : PGS
  548. Codec ID : S_HDMV/PGS
  549. Codec ID/Info : Picture based subtitle format used on BDs/HD-DVDs
  550. Duration : 1h 44mn
  551. Bit rate : 18.9 Kbps
  552. Count of elements : 1634
  553. Stream size : 14.2 MiB (0%)
  554. Language : Turkish
  555. Default : No
  556. Forced : No
  557.  
  558. Text #37
  559. ID : 40
  560. Format : PGS
  561. Codec ID : S_HDMV/PGS
  562. Codec ID/Info : Picture based subtitle format used on BDs/HD-DVDs
  563. Duration : 1h 44mn
  564. Bit rate : 17.0 Kbps
  565. Count of elements : 1596
  566. Stream size : 12.7 MiB (0%)
  567. Language : Ukrainian
  568. Default : No
  569. Forced : No
  570.  
  571. Text #38
  572. ID : 41
  573. Format : PGS
  574. Codec ID : S_HDMV/PGS
  575. Codec ID/Info : Picture based subtitle format used on BDs/HD-DVDs
  576. Duration : 1h 44mn
  577. Bit rate : 38.2 Kbps
  578. Count of elements : 2482
  579. Stream size : 28.6 MiB (0%)
  580. Title : Commentary by director McG
  581. Language : English
  582. Default : No
  583. Forced : No
  584.  
  585. Text #39
  586. ID : 42
  587. Format : PGS
  588. Codec ID : S_HDMV/PGS
  589. Codec ID/Info : Picture based subtitle format used on BDs/HD-DVDs
  590. Duration : 1h 44mn
  591. Bit rate : 31.9 Kbps
  592. Count of elements : 2714
  593. Stream size : 23.9 MiB (0%)
  594. Title : Commentary by director McG
  595. Language : Chinese
  596. Default : No
  597. Forced : No
  598.  
  599. Text #40
  600. ID : 43
  601. Format : PGS
  602. Codec ID : S_HDMV/PGS
  603. Codec ID/Info : Picture based subtitle format used on BDs/HD-DVDs
  604. Duration : 1h 44mn
  605. Bit rate : 31.4 Kbps
  606. Count of elements : 2468
  607. Stream size : 23.5 MiB (0%)
  608. Title : Commentary by director McG
  609. Language : Czech
  610. Default : No
  611. Forced : No
  612.  
  613. Text #41
  614. ID : 44
  615. Format : PGS
  616. Codec ID : S_HDMV/PGS
  617. Codec ID/Info : Picture based subtitle format used on BDs/HD-DVDs
  618. Duration : 1h 44mn
  619. Bit rate : 33.6 Kbps
  620. Count of elements : 2546
  621. Stream size : 25.2 MiB (0%)
  622. Title : Commentary by director McG
  623. Language : Greek
  624. Default : No
  625. Forced : No
  626.  
  627. Text #42
  628. ID : 45
  629. Format : PGS
  630. Codec ID : S_HDMV/PGS
  631. Codec ID/Info : Picture based subtitle format used on BDs/HD-DVDs
  632. Duration : 1h 44mn
  633. Bit rate : 25.4 Kbps
  634. Count of elements : 2530
  635. Stream size : 19.1 MiB (0%)
  636. Title : Commentary by director McG
  637. Language : Hebrew
  638. Default : No
  639. Forced : No
  640.  
  641. Text #43
  642. ID : 46
  643. Format : PGS
  644. Codec ID : S_HDMV/PGS
  645. Codec ID/Info : Picture based subtitle format used on BDs/HD-DVDs
  646. Duration : 1h 44mn
  647. Bit rate : 30.7 Kbps
  648. Count of elements : 2460
  649. Stream size : 23.0 MiB (0%)
  650. Title : Commentary by director McG
  651. Language : Hungarian
  652. Default : No
  653. Forced : No
  654.  
  655. Text #44
  656. ID : 47
  657. Format : PGS
  658. Codec ID : S_HDMV/PGS
  659. Codec ID/Info : Picture based subtitle format used on BDs/HD-DVDs
  660. Duration : 1h 44mn
  661. Bit rate : 34.0 Kbps
  662. Count of elements : 2534
  663. Stream size : 25.5 MiB (0%)
  664. Title : Commentary by director McG
  665. Language : Polish
  666. Default : No
  667. Forced : No
  668.  
  669. Text #45
  670. ID : 48
  671. Format : PGS
  672. Codec ID : S_HDMV/PGS
  673. Codec ID/Info : Picture based subtitle format used on BDs/HD-DVDs
  674. Duration : 1h 45mn
  675. Bit rate : 36.8 Kbps
  676. Count of elements : 2678
  677. Stream size : 27.8 MiB (0%)
  678. Title : Commentary by director McG
  679. Language : Portuguese
  680. Default : No
  681. Forced : No
  682.  
  683. Text #46
  684. ID : 49
  685. Format : PGS
  686. Codec ID : S_HDMV/PGS
  687. Codec ID/Info : Picture based subtitle format used on BDs/HD-DVDs
  688. Duration : 1h 44mn
  689. Bit rate : 35.2 Kbps
  690. Count of elements : 2592
  691. Stream size : 26.5 MiB (0%)
  692. Title : Commentary by director McG
  693. Language : Russian
  694. Default : No
  695. Forced : No
  696.  
  697. Text #47
  698. ID : 50
  699. Format : PGS
  700. Codec ID : S_HDMV/PGS
  701. Codec ID/Info : Picture based subtitle format used on BDs/HD-DVDs
  702. Duration : 1h 44mn
  703. Bit rate : 31.2 Kbps
  704. Count of elements : 2658
  705. Stream size : 23.4 MiB (0%)
  706. Title : Commentary by director McG
  707. Language : Spanish
  708. Default : No
  709. Forced : No
  710.  
  711. Text #48
  712. ID : 51
  713. Format : PGS
  714. Codec ID : S_HDMV/PGS
  715. Codec ID/Info : Picture based subtitle format used on BDs/HD-DVDs
  716. Duration : 1h 44mn
  717. Bit rate : 36.8 Kbps
  718. Count of elements : 2702
  719. Stream size : 27.6 MiB (0%)
  720. Title : Commentary by director McG
  721. Language : Thai
  722. Default : No
  723. Forced : No
  724.  
  725. Text #49
  726. ID : 52
  727. Format : PGS
  728. Codec ID : S_HDMV/PGS
  729. Codec ID/Info : Picture based subtitle format used on BDs/HD-DVDs
  730. Duration : 1h 44mn
  731. Bit rate : 30.5 Kbps
  732. Count of elements : 2540
  733. Stream size : 22.9 MiB (0%)
  734. Title : Commentary by director McG
  735. Language : Turkish
  736. Default : No
  737. Forced : No
  738.  
  739. Menu
  740. 00:00:00.000 : en:Chapter 1
  741. 00:04:10.834 : en:Chapter 2
  742. 00:14:30.620 : en:Chapter 3
  743. 00:21:08.392 : en:Chapter 4
  744. 00:29:11.500 : en:Chapter 5
  745. 00:34:25.146 : en:Chapter 6
  746. 00:41:06.839 : en:Chapter 7
  747. 00:50:15.888 : en:Chapter 8
  748. 00:56:20.210 : en:Chapter 9
  749. 01:06:19.184 : en:Chapter 10
  750. 01:15:24.854 : en:Chapter 11
  751. 01:22:50.674 : en:Chapter 12
  752. 01:30:35.513 : en:Chapter 13
  753. 01:34:55.481 : en:Chapter 14
  754. 01:38:54.178 : en:Chapter 15
  755. 01:42:43.366 : en:Chapter 16
RAW Paste Data