Henry_Kr

FS-S02

Nov 25th, 2019
73
Never
Not a member of Pastebin yet? Sign Up, it unlocks many cool features!
  1. Video
  2. ID : 1
  3. Format : AVC
  4. Format/Info : Advanced Video Codec
  5. Format profile : Main@L4
  6. Format settings : CABAC / 3 Ref Frames
  7. Format settings, CABAC : Yes
  8. Format settings, Reference : 3 frames
  9. Muxing mode : Header stripping
  10. Codec ID : V_MPEG4/ISO/AVC
  11. Duration : 22 min 9 s
  12. Bit rate mode : Variable
  13. Bit rate : 4 420 kb/s
  14. Maximum bit rate : 6 630 kb/s
  15. Width : 1 920 pixels
  16. Height : 1 080 pixels
  17. Display aspect ratio : 16:9
  18. Frame rate mode : Constant
  19. Frame rate : 23.976 (24000/1001) FPS
  20. Color space : YUV
  21. Chroma subsampling : 4:2:0
  22. Bit depth : 8 bits
  23. Scan type : Progressive
  24. Bits/(Pixel*Frame) : 0.089
  25. Stream size : 674 MiB (75%)
  26. Title : Final.Space.S02E01.Regata.de.Toro.1080p.WEB-DL.[CartoonNOW]
  27. Language : English
  28. Default : Yes
  29. Forced : No
  30. Statistics Tags Issue : mkvmerge v36.0.0 ('Is That Jazz?') 64-bit 2019-11-24 23:17:45 / mkvmerge v5.8.0 ('No Sleep / Pillow') built on Sep 2 2012 15:37:04 2019-11-25 19:17:38
  31. FromStats_BitRate : 4365553
  32. FromStats_Duration : 00:22:09.579000000
  33. FromStats_FrameCount : 31878
  34. FromStats_StreamSize : 725543500
  35.  
  36. Audio #1
  37. ID : 2
  38. Format : E-AC-3
  39. Format/Info : Enhanced AC-3
  40. Commercial name : Dolby Digital Plus
  41. Muxing mode : Header stripping
  42. Codec ID : A_EAC3
  43. Duration : 22 min 9 s
  44. Bit rate mode : Constant
  45. Bit rate : 640 kb/s
  46. Channel(s) : 6 channels
  47. Channel layout : L R C LFE Ls Rs
  48. Sampling rate : 48.0 kHz
  49. Frame rate : 31.250 FPS (1536 SPF)
  50. Compression mode : Lossy
  51. Stream size : 101 MiB (11%)
  52. Title : E-AC3 5.1
  53. Language : Portuguese
  54. Service kind : Complete Main
  55. Default : Yes
  56. Forced : No
  57. Statistics Tags Issue : mkvmerge v36.0.0 ('Is That Jazz?') 64-bit 2019-11-24 23:17:45 / mkvmerge v5.8.0 ('No Sleep / Pillow') built on Sep 2 2012 15:37:04 2019-11-25 19:17:38
  58. FromStats_BitRate : 640000
  59. FromStats_Duration : 00:22:09.824000000
  60. FromStats_FrameCount : 41557
  61. FromStats_StreamSize : 106385920
  62.  
  63. Audio #2
  64. ID : 3
  65. Format : E-AC-3
  66. Format/Info : Enhanced AC-3
  67. Commercial name : Dolby Digital Plus
  68. Muxing mode : Header stripping
  69. Codec ID : A_EAC3
  70. Duration : 22 min 9 s
  71. Bit rate mode : Constant
  72. Bit rate : 640 kb/s
  73. Channel(s) : 6 channels
  74. Channel layout : L R C LFE Ls Rs
  75. Sampling rate : 48.0 kHz
  76. Frame rate : 31.250 FPS (1536 SPF)
  77. Compression mode : Lossy
  78. Stream size : 101 MiB (11%)
  79. Title : E-AC3 5.1
  80. Language : English
  81. Service kind : Complete Main
  82. Default : No
  83. Forced : No
  84. Statistics Tags Issue : mkvmerge v36.0.0 ('Is That Jazz?') 64-bit 2019-11-24 23:17:45 / mkvmerge v5.8.0 ('No Sleep / Pillow') built on Sep 2 2012 15:37:04 2019-11-25 19:17:38
  85. FromStats_BitRate : 640000
  86. FromStats_Duration : 00:22:09.824000000
  87. FromStats_FrameCount : 41557
  88. FromStats_StreamSize : 106385920
  89.  
  90. Text #1
  91. ID : 4
  92. Format : UTF-8
  93. Codec ID : S_TEXT/UTF8
  94. Codec ID/Info : UTF-8 Plain Text
  95. Title : Forçada
  96. Language : Portuguese
  97. Default : No
  98. Forced : Yes
  99. Statistics Tags Issue : mkvmerge v36.0.0 ('Is That Jazz?') 64-bit 2019-11-24 23:17:45 / mkvmerge v5.8.0 ('No Sleep / Pillow') built on Sep 2 2012 15:37:04 2019-11-25 19:17:38
  100. FromStats_BitRate : 1
  101. FromStats_Duration : 00:14:40.630000000
  102. FromStats_FrameCount : 10
  103. FromStats_StreamSize : 141
  104.  
  105. Text #2
  106. ID : 5
  107. Format : UTF-8
  108. Codec ID : S_TEXT/UTF8
  109. Codec ID/Info : UTF-8 Plain Text
  110. Title : Completa
  111. Language : Portuguese
  112. Default : No
  113. Forced : No
  114. Statistics Tags Issue : mkvmerge v36.0.0 ('Is That Jazz?') 64-bit 2019-11-24 23:17:45 / mkvmerge v5.8.0 ('No Sleep / Pillow') built on Sep 2 2012 15:37:04 2019-11-25 19:17:38
  115. FromStats_BitRate : 71
  116. FromStats_Duration : 00:21:40.757000000
  117. FromStats_FrameCount : 365
  118. FromStats_StreamSize : 11568
RAW Paste Data