SHARE
TWEET

Untitled

mft39anton Oct 13th, 2017 66 Never
Not a member of Pastebin yet? Sign Up, it unlocks many cool features!
  1. Disc Title:     INVENTING_DAVID_GEFFEN_rmHD
  2. Disc Size:      35,610,753,000 bytes
  3. Protection:     AACS
  4. BD-Java:        No
  5. BDInfo:         0.5.8
  6.  
  7. Notes:          
  8.  
  9. BDINFO HOME:
  10.   Cinema Squid
  11.     http://www.cinemasquid.com/blu-ray/tools/bdinfo
  12.  
  13. INCLUDES FORUMS REPORT FOR:
  14.   AVS Forum Blu-ray Audio and Video Specifications Thread
  15.     http://www.avsforum.com/avs-vb/showthread.php?t=1155731
  16.  
  17.  
  18. ********************
  19. PLAYLIST: 00001.MPLS
  20. ********************
  21.  
  22. <--- BEGIN FORUMS PASTE --->
  23. [code]
  24.                                                                                                                 Total   Video                                            
  25. Title                                                           Codec   Length  Movie Size      Disc Size       Bitrate Bitrate Main Audio Track                          Secondary Audio Track
  26. -----                                                           ------  ------- --------------  --------------  ------- ------- ------------------                        ---------------------
  27. 00001.MPLS                                                      AVC     1:55:05 28,852,862,976  35,610,753,000  33.43   27.98   DTS-HD Master 5.1 1821Kbps (48kHz/16-bit) DTS-HD Master 2.0 1618Kbps (48kHz/16-bit)
  28. [/code]
  29.  
  30. [code]
  31.  
  32. DISC INFO:
  33.  
  34. Disc Title:     INVENTING_DAVID_GEFFEN_rmHD
  35. Disc Size:      35,610,753,000 bytes
  36. Protection:     AACS
  37. BD-Java:        No
  38. BDInfo:         0.5.8
  39.  
  40. PLAYLIST REPORT:
  41.  
  42. Name:                   00001.MPLS
  43. Length:                 1:55:05.665 (h:m:s.ms)
  44. Size:                   28,852,862,976 bytes
  45. Total Bitrate:          33.43 Mbps
  46.  
  47. VIDEO:
  48.  
  49. Codec                   Bitrate             Description    
  50. -----                   -------             -----------    
  51. MPEG-4 AVC Video        27984 kbps          1080i / 29.970 fps / 16:9 / High Profile 4.1
  52.  
  53. AUDIO:
  54.  
  55. Codec                           Language        Bitrate         Description    
  56. -----                           --------        -------         -----------    
  57. DTS-HD Master Audio             English         1821 kbps       5.1 / 48 kHz / 1821 kbps / 16-bit (DTS Core: 5.1 / 48 kHz / 1509 kbps / 16-bit)
  58. DTS-HD Master Audio             English         1618 kbps       2.0 / 48 kHz / 1618 kbps / 16-bit (DTS Core: 2.0 / 48 kHz / 1509 kbps / 16-bit)
  59.  
  60. SUBTITLES:
  61.  
  62. Codec                           Language        Bitrate         Description    
  63. -----                           --------        -------         -----------    
  64. Presentation Graphics           English         72.115 kbps                    
  65.  
  66. FILES:
  67.  
  68. Name            Time In         Length          Size            Total Bitrate  
  69. ----            -------         ------          ----            -------------  
  70. 00000.M2TS      0:00:00.000     1:54:59.626     28,833,853,440  33,432          
  71. 00011.M2TS      1:54:59.626     0:00:06.039     19,009,536      25,181          
  72.  
  73. CHAPTERS:
  74.  
  75. Number          Time In         Length          Avg Video Rate  Max 1-Sec Rate  Max 1-Sec Time  Max 5-Sec Rate  Max 5-Sec Time  Max 10Sec Rate  Max 10Sec Time  Avg Frame Size  Max Frame Size  Max Frame Time  
  76. ------          -------         ------          --------------  --------------  --------------  --------------  --------------  --------------  --------------  --------------  --------------  --------------  
  77. 1               0:00:00.000     0:10:31.864     27,586 kbps     41,993 kbps     00:06:50.710    38,379 kbps     00:06:42.735    37,201 kbps     00:06:41.701    115,050 bytes   481,512 bytes   00:02:39.492    
  78. 2               0:10:31.864     0:07:41.561     27,577 kbps     42,058 kbps     00:15:56.188    37,535 kbps     00:13:41.921    36,668 kbps     00:14:17.623    115,021 bytes   489,310 bytes   00:12:54.974    
  79. 3               0:18:13.425     0:09:56.228     25,233 kbps     44,582 kbps     00:26:47.973    40,089 kbps     00:26:45.704    36,761 kbps     00:23:07.486    105,244 bytes   542,081 bytes   00:19:19.525    
  80. 4               0:28:09.654     0:10:00.666     28,575 kbps     39,549 kbps     00:29:30.335    37,256 kbps     00:29:29.534    36,743 kbps     00:29:24.462    119,180 bytes   538,627 bytes   00:32:16.401    
  81. 5               0:38:10.321     0:17:29.381     28,725 kbps     43,843 kbps     00:53:37.647    38,990 kbps     00:53:34.277    36,901 kbps     00:38:26.304    119,809 bytes   525,215 bytes   00:50:51.515    
  82. 6               0:55:39.703     0:07:30.049     27,030 kbps     42,186 kbps     00:59:55.592    37,742 kbps     00:59:54.857    36,923 kbps     00:59:52.455    112,737 bytes   539,773 bytes   01:01:16.105    
  83. 7               1:03:09.752     0:06:22.849     25,228 kbps     42,819 kbps     01:05:21.117    36,633 kbps     01:05:12.942    35,927 kbps     01:09:21.290    105,223 bytes   603,985 bytes   01:05:18.614    
  84. 8               1:09:32.601     0:07:54.841     27,442 kbps     42,442 kbps     01:12:09.191    37,249 kbps     01:12:06.955    35,971 kbps     01:09:34.703    114,454 bytes   466,140 bytes   01:11:23.846    
  85. 9               1:17:27.442     0:10:48.347     28,994 kbps     44,915 kbps     01:27:08.856    38,752 kbps     01:27:08.056    36,378 kbps     01:27:03.084    120,931 bytes   490,399 bytes   01:22:23.872    
  86. 10              1:28:15.790     0:05:28.561     29,513 kbps     40,734 kbps     01:28:20.428    38,051 kbps     01:28:20.461    36,109 kbps     01:31:05.092    123,094 bytes   513,044 bytes   01:28:45.586    
  87. 11              1:33:44.352     0:05:17.050     29,815 kbps     40,642 kbps     01:33:54.362    36,983 kbps     01:37:30.811    36,329 kbps     01:37:30.978    124,353 bytes   464,370 bytes   01:33:54.528    
  88. 12              1:39:01.402     0:07:47.333     28,773 kbps     44,823 kbps     01:43:02.876    37,164 kbps     01:41:45.566    36,422 kbps     01:41:43.230    120,006 bytes   460,528 bytes   01:42:50.164    
  89. 13              1:46:48.735     0:04:40.113     28,451 kbps     39,959 kbps     01:49:28.862    37,820 kbps     01:49:26.459    37,186 kbps     01:49:26.126    118,665 bytes   478,194 bytes   01:49:30.664    
  90. 14              1:51:28.848     0:03:30.777     30,348 kbps     41,103 kbps     01:52:46.893    37,381 kbps     01:52:43.690    36,751 kbps     01:52:38.818    126,576 bytes   450,744 bytes   01:52:45.325    
  91. 15              1:54:59.626     0:00:06.039     20,221 kbps     41,802 kbps     01:54:59.926    24,332 kbps     01:54:59.926    0 kbps          00:00:00.000    84,807 bytes    465,149 bytes   01:55:00.727    
  92.  
  93. STREAM DIAGNOSTICS:
  94.  
  95. File            PID             Type            Codec           Language                Seconds                 Bitrate                 Bytes           Packets        
  96. ----            ---             ----            -----           --------                --------------          --------------          -------------   -----          
  97. 00000.M2TS      4113 (0x1011)   0x1B            AVC                                     6899.526                27,991                  24,140,805,168  131,321,157    
  98. 00000.M2TS      4352 (0x1100)   0x86            DTS-HD MA       eng (English)           6899.526                1,821                   1,570,777,380   9,605,235      
  99. 00000.M2TS      4353 (0x1101)   0x86            DTS-HD MA       eng (English)           6899.526                1,618                   1,395,302,736   8,664,180      
  100. 00000.M2TS      4608 (0x1200)   0x90            PGS             eng (English)           6899.526                72                      62,250,272      354,563        
  101. 00011.M2TS      4113 (0x1011)   0x1B            AVC                                     5.906                   20,681                  15,267,640      83,089          
  102. 00011.M2TS      4352 (0x1100)   0x86            DTS-HD MA       eng (English)           5.906                   1,711                   1,262,772       7,834          
  103. 00011.M2TS      4353 (0x1101)   0x86            DTS-HD MA       eng (English)           5.906                   1,711                   1,262,772       7,834          
  104.  
  105. [/code]
  106. <---- END FORUMS PASTE ---->
  107.  
  108. QUICK SUMMARY:
  109.  
  110. Disc Title: INVENTING_DAVID_GEFFEN_rmHD
  111. Disc Size: 35,610,753,000 bytes
  112. Protection: AACS
  113. BD-Java: No
  114. Playlist: 00001.MPLS
  115. Size: 28,852,862,976 bytes
  116. Length: 1:55:05.665
  117. Total Bitrate: 33.43 Mbps
  118. Video: MPEG-4 AVC Video / 27984 kbps / 1080i / 29.970 fps / 16:9 / High Profile 4.1
  119. Audio: English / DTS-HD Master Audio / 5.1 / 48 kHz / 1821 kbps / 16-bit (DTS Core: 5.1 / 48 kHz / 1509 kbps / 16-bit)
  120. Audio: English / DTS-HD Master Audio / 2.0 / 48 kHz / 1618 kbps / 16-bit (DTS Core: 2.0 / 48 kHz / 1509 kbps / 16-bit)
  121. Subtitle: English / 72.115 kbps
  122.  
  123.  
  124. ********************
  125. PLAYLIST: 00005.MPLS
  126. ********************
  127.  
  128. <--- BEGIN FORUMS PASTE --->
  129. [code]
  130.                                                                                                                 Total   Video                                            
  131. Title                                                           Codec   Length  Movie Size      Disc Size       Bitrate Bitrate Main Audio Track                          Secondary Audio Track
  132. -----                                                           ------  ------- --------------  --------------  ------- ------- ------------------                        ---------------------
  133. 00005.MPLS                                                      AVC     0:05:56 1,467,045,696   35,610,753,000  32.93   27.60   DTS-HD Master 2.0 1708Kbps (48kHz/16-bit) DTS-HD Master 2.0 1708Kbps (48kHz/16-bit)
  134. [/code]
  135.  
  136. [code]
  137.  
  138. DISC INFO:
  139.  
  140. Disc Title:     INVENTING_DAVID_GEFFEN_rmHD
  141. Disc Size:      35,610,753,000 bytes
  142. Protection:     AACS
  143. BD-Java:        No
  144. BDInfo:         0.5.8
  145.  
  146. PLAYLIST REPORT:
  147.  
  148. Name:                   00005.MPLS
  149. Length:                 0:05:56.355 (h:m:s.ms)
  150. Size:                   1,467,045,696 bytes
  151. Total Bitrate:          32.93 Mbps
  152.  
  153. VIDEO:
  154.  
  155. Codec                   Bitrate             Description    
  156. -----                   -------             -----------    
  157. MPEG-4 AVC Video        27595 kbps          1080i / 29.970 fps / 16:9 / High Profile 4.1
  158.  
  159. AUDIO:
  160.  
  161. Codec                           Language        Bitrate         Description    
  162. -----                           --------        -------         -----------    
  163. DTS-HD Master Audio             English         1708 kbps       2.0 / 48 kHz / 1708 kbps / 16-bit (DTS Core: 2.0 / 48 kHz / 1509 kbps / 16-bit)
  164. DTS-HD Master Audio             English         1708 kbps       2.0 / 48 kHz / 1708 kbps / 16-bit (DTS Core: 2.0 / 48 kHz / 1509 kbps / 16-bit)
  165.  
  166. FILES:
  167.  
  168. Name            Time In         Length          Size            Total Bitrate  
  169. ----            -------         ------          ----            -------------  
  170. 00001.M2TS      0:00:00.000     0:05:56.355     1,467,045,696   32,934          
  171.  
  172. CHAPTERS:
  173.  
  174. Number          Time In         Length          Avg Video Rate  Max 1-Sec Rate  Max 1-Sec Time  Max 5-Sec Rate  Max 5-Sec Time  Max 10Sec Rate  Max 10Sec Time  Avg Frame Size  Max Frame Size  Max Frame Time  
  175. ------          -------         ------          --------------  --------------  --------------  --------------  --------------  --------------  --------------  --------------  --------------  --------------  
  176. 1               0:00:00.000     0:05:56.355     27,596 kbps     35,335 kbps     00:00:05.438    32,535 kbps     00:00:03.003    30,619 kbps     00:04:31.104    115,086 bytes   386,266 bytes   00:03:12.192    
  177.  
  178. STREAM DIAGNOSTICS:
  179.  
  180. File            PID             Type            Codec           Language                Seconds                 Bitrate                 Bytes           Packets        
  181. ----            ---             ----            -----           --------                --------------          --------------          -------------   -----          
  182. 00001.M2TS      4113 (0x1011)   0x1B            AVC                                     1521.887                27,980                  5,322,838,963   28,955,150      
  183. 00001.M2TS      4352 (0x1100)   0x86            DTS-HD MA       eng (English)           1521.887                1,715                   326,235,940     2,012,036      
  184. 00001.M2TS      4353 (0x1101)   0x86            DTS-HD MA       eng (English)           1521.887                1,715                   326,235,940     2,012,036      
  185.  
  186. [/code]
  187. <---- END FORUMS PASTE ---->
  188.  
  189. QUICK SUMMARY:
  190.  
  191. Disc Title: INVENTING_DAVID_GEFFEN_rmHD
  192. Disc Size: 35,610,753,000 bytes
  193. Protection: AACS
  194. BD-Java: No
  195. Playlist: 00005.MPLS
  196. Size: 1,467,045,696 bytes
  197. Length: 0:05:56.355
  198. Total Bitrate: 32.93 Mbps
  199. Video: MPEG-4 AVC Video / 27595 kbps / 1080i / 29.970 fps / 16:9 / High Profile 4.1
  200. Audio: English / DTS-HD Master Audio / 2.0 / 48 kHz / 1708 kbps / 16-bit (DTS Core: 2.0 / 48 kHz / 1509 kbps / 16-bit)
  201. Audio: English / DTS-HD Master Audio / 2.0 / 48 kHz / 1708 kbps / 16-bit (DTS Core: 2.0 / 48 kHz / 1509 kbps / 16-bit)
  202.  
  203.  
  204. ********************
  205. PLAYLIST: 00003.MPLS
  206. ********************
  207.  
  208. <--- BEGIN FORUMS PASTE --->
  209. [code]
  210.                                                                                                                 Total   Video                                            
  211. Title                                                           Codec   Length  Movie Size      Disc Size       Bitrate Bitrate Main Audio Track                          Secondary Audio Track
  212. -----                                                           ------  ------- --------------  --------------  ------- ------- ------------------                        ---------------------
  213. 00003.MPLS                                                      AVC     0:05:41 1,502,926,080   35,610,753,000  35.24   29.82   DTS-HD Master 2.0 1713Kbps (48kHz/16-bit) DTS-HD Master 2.0 1713Kbps (48kHz/16-bit)
  214. [/code]
  215.  
  216. [code]
  217.  
  218. DISC INFO:
  219.  
  220. Disc Title:     INVENTING_DAVID_GEFFEN_rmHD
  221. Disc Size:      35,610,753,000 bytes
  222. Protection:     AACS
  223. BD-Java:        No
  224. BDInfo:         0.5.8
  225.  
  226. PLAYLIST REPORT:
  227.  
  228. Name:                   00003.MPLS
  229. Length:                 0:05:41.140 (h:m:s.ms)
  230. Size:                   1,502,926,080 bytes
  231. Total Bitrate:          35.24 Mbps
  232.  
  233. VIDEO:
  234.  
  235. Codec                   Bitrate             Description    
  236. -----                   -------             -----------    
  237. MPEG-4 AVC Video        29818 kbps          1080i / 29.970 fps / 16:9 / High Profile 4.1
  238.  
  239. AUDIO:
  240.  
  241. Codec                           Language        Bitrate         Description    
  242. -----                           --------        -------         -----------    
  243. DTS-HD Master Audio             English         1713 kbps       2.0 / 48 kHz / 1713 kbps / 16-bit (DTS Core: 2.0 / 48 kHz / 1509 kbps / 16-bit)
  244. DTS-HD Master Audio             English         1713 kbps       2.0 / 48 kHz / 1713 kbps / 16-bit (DTS Core: 2.0 / 48 kHz / 1509 kbps / 16-bit)
  245.  
  246. FILES:
  247.  
  248. Name            Time In         Length          Size            Total Bitrate  
  249. ----            -------         ------          ----            -------------  
  250. 00001.M2TS      0:00:00.000     0:05:41.140     1,502,926,080   35,241          
  251.  
  252. CHAPTERS:
  253.  
  254. Number          Time In         Length          Avg Video Rate  Max 1-Sec Rate  Max 1-Sec Time  Max 5-Sec Rate  Max 5-Sec Time  Max 10Sec Rate  Max 10Sec Time  Avg Frame Size  Max Frame Size  Max Frame Time  
  255. ------          -------         ------          --------------  --------------  --------------  --------------  --------------  --------------  --------------  --------------  --------------  --------------  
  256. 1               0:00:00.000     0:05:41.140     29,821 kbps     36,035 kbps     00:03:22.435    31,849 kbps     00:03:21.634    31,295 kbps     00:00:03.169    124,368 bytes   385,675 bytes   00:00:38.438    
  257.  
  258. STREAM DIAGNOSTICS:
  259.  
  260. File            PID             Type            Codec           Language                Seconds                 Bitrate                 Bytes           Packets        
  261. ----            ---             ----            -----           --------                --------------          --------------          -------------   -----          
  262. 00001.M2TS      4113 (0x1011)   0x1B            AVC                                     1521.887                27,980                  5,322,838,963   28,955,150      
  263. 00001.M2TS      4352 (0x1100)   0x86            DTS-HD MA       eng (English)           1521.887                1,715                   326,235,940     2,012,036      
  264. 00001.M2TS      4353 (0x1101)   0x86            DTS-HD MA       eng (English)           1521.887                1,715                   326,235,940     2,012,036      
  265.  
  266. [/code]
  267. <---- END FORUMS PASTE ---->
  268.  
  269. QUICK SUMMARY:
  270.  
  271. Disc Title: INVENTING_DAVID_GEFFEN_rmHD
  272. Disc Size: 35,610,753,000 bytes
  273. Protection: AACS
  274. BD-Java: No
  275. Playlist: 00003.MPLS
  276. Size: 1,502,926,080 bytes
  277. Length: 0:05:41.140
  278. Total Bitrate: 35.24 Mbps
  279. Video: MPEG-4 AVC Video / 29818 kbps / 1080i / 29.970 fps / 16:9 / High Profile 4.1
  280. Audio: English / DTS-HD Master Audio / 2.0 / 48 kHz / 1713 kbps / 16-bit (DTS Core: 2.0 / 48 kHz / 1509 kbps / 16-bit)
  281. Audio: English / DTS-HD Master Audio / 2.0 / 48 kHz / 1713 kbps / 16-bit (DTS Core: 2.0 / 48 kHz / 1509 kbps / 16-bit)
  282.  
  283.  
  284. ********************
  285. PLAYLIST: 00010.MPLS
  286. ********************
  287.  
  288. <--- BEGIN FORUMS PASTE --->
  289. [code]
  290.                                                                                                                 Total   Video                                            
  291. Title                                                           Codec   Length  Movie Size      Disc Size       Bitrate Bitrate Main Audio Track                          Secondary Audio Track
  292. -----                                                           ------  ------- --------------  --------------  ------- ------- ------------------                        ---------------------
  293. 00010.MPLS                                                      AVC     0:05:33 1,465,854,912   35,610,753,000  35.14   29.73   DTS-HD Master 2.0 1710Kbps (48kHz/16-bit) DTS-HD Master 2.0 1710Kbps (48kHz/16-bit)
  294. [/code]
  295.  
  296. [code]
  297.  
  298. DISC INFO:
  299.  
  300. Disc Title:     INVENTING_DAVID_GEFFEN_rmHD
  301. Disc Size:      35,610,753,000 bytes
  302. Protection:     AACS
  303. BD-Java:        No
  304. BDInfo:         0.5.8
  305.  
  306. PLAYLIST REPORT:
  307.  
  308. Name:                   00010.MPLS
  309. Length:                 0:05:33.733 (h:m:s.ms)
  310. Size:                   1,465,854,912 bytes
  311. Total Bitrate:          35.14 Mbps
  312.  
  313. VIDEO:
  314.  
  315. Codec                   Bitrate             Description    
  316. -----                   -------             -----------    
  317. MPEG-4 AVC Video        29727 kbps          1080i / 29.970 fps / 16:9 / High Profile 4.1
  318.  
  319. AUDIO:
  320.  
  321. Codec                           Language        Bitrate         Description    
  322. -----                           --------        -------         -----------    
  323. DTS-HD Master Audio             English         1710 kbps       2.0 / 48 kHz / 1710 kbps / 16-bit (DTS Core: 2.0 / 48 kHz / 1509 kbps / 16-bit)
  324. DTS-HD Master Audio             English         1710 kbps       2.0 / 48 kHz / 1710 kbps / 16-bit (DTS Core: 2.0 / 48 kHz / 1509 kbps / 16-bit)
  325.  
  326. FILES:
  327.  
  328. Name            Time In         Length          Size            Total Bitrate  
  329. ----            -------         ------          ----            -------------  
  330. 00001.M2TS      0:00:00.000     0:05:33.733     1,465,854,912   35,138          
  331.  
  332. CHAPTERS:
  333.  
  334. Number          Time In         Length          Avg Video Rate  Max 1-Sec Rate  Max 1-Sec Time  Max 5-Sec Rate  Max 5-Sec Time  Max 10Sec Rate  Max 10Sec Time  Avg Frame Size  Max Frame Size  Max Frame Time  
  335. ------          -------         ------          --------------  --------------  --------------  --------------  --------------  --------------  --------------  --------------  --------------  --------------  
  336. 1               0:00:00.000     0:05:33.733     29,727 kbps     38,779 kbps     00:00:04.537    36,622 kbps     00:00:07.707    36,476 kbps     00:00:02.902    123,988 bytes   453,385 bytes   00:00:07.107    
  337.  
  338. STREAM DIAGNOSTICS:
  339.  
  340. File            PID             Type            Codec           Language                Seconds                 Bitrate                 Bytes           Packets        
  341. ----            ---             ----            -----           --------                --------------          --------------          -------------   -----          
  342. 00001.M2TS      4113 (0x1011)   0x1B            AVC                                     1521.887                27,980                  5,322,838,963   28,955,150      
  343. 00001.M2TS      4352 (0x1100)   0x86            DTS-HD MA       eng (English)           1521.887                1,715                   326,235,940     2,012,036      
  344. 00001.M2TS      4353 (0x1101)   0x86            DTS-HD MA       eng (English)           1521.887                1,715                   326,235,940     2,012,036      
  345.  
  346. [/code]
  347. <---- END FORUMS PASTE ---->
  348.  
  349. QUICK SUMMARY:
  350.  
  351. Disc Title: INVENTING_DAVID_GEFFEN_rmHD
  352. Disc Size: 35,610,753,000 bytes
  353. Protection: AACS
  354. BD-Java: No
  355. Playlist: 00010.MPLS
  356. Size: 1,465,854,912 bytes
  357. Length: 0:05:33.733
  358. Total Bitrate: 35.14 Mbps
  359. Video: MPEG-4 AVC Video / 29727 kbps / 1080i / 29.970 fps / 16:9 / High Profile 4.1
  360. Audio: English / DTS-HD Master Audio / 2.0 / 48 kHz / 1710 kbps / 16-bit (DTS Core: 2.0 / 48 kHz / 1509 kbps / 16-bit)
  361. Audio: English / DTS-HD Master Audio / 2.0 / 48 kHz / 1710 kbps / 16-bit (DTS Core: 2.0 / 48 kHz / 1509 kbps / 16-bit)
  362.  
  363.  
  364. ********************
  365. PLAYLIST: 00004.MPLS
  366. ********************
  367.  
  368. <--- BEGIN FORUMS PASTE --->
  369. [code]
  370.                                                                                                                 Total   Video                                            
  371. Title                                                           Codec   Length  Movie Size      Disc Size       Bitrate Bitrate Main Audio Track                          Secondary Audio Track
  372. -----                                                           ------  ------- --------------  --------------  ------- ------- ------------------                        ---------------------
  373. 00004.MPLS                                                      AVC     0:03:36 869,318,592     35,610,753,000  32.05   26.76   DTS-HD Master 2.0 1708Kbps (48kHz/16-bit) DTS-HD Master 2.0 1708Kbps (48kHz/16-bit)
  374. [/code]
  375.  
  376. [code]
  377.  
  378. DISC INFO:
  379.  
  380. Disc Title:     INVENTING_DAVID_GEFFEN_rmHD
  381. Disc Size:      35,610,753,000 bytes
  382. Protection:     AACS
  383. BD-Java:        No
  384. BDInfo:         0.5.8
  385.  
  386. PLAYLIST REPORT:
  387.  
  388. Name:                   00004.MPLS
  389. Length:                 0:03:36.983 (h:m:s.ms)
  390. Size:                   869,318,592 bytes
  391. Total Bitrate:          32.05 Mbps
  392.  
  393. VIDEO:
  394.  
  395. Codec                   Bitrate             Description    
  396. -----                   -------             -----------    
  397. MPEG-4 AVC Video        26763 kbps          1080i / 29.970 fps / 16:9 / High Profile 4.1
  398.  
  399. AUDIO:
  400.  
  401. Codec                           Language        Bitrate         Description    
  402. -----                           --------        -------         -----------    
  403. DTS-HD Master Audio             English         1708 kbps       2.0 / 48 kHz / 1708 kbps / 16-bit (DTS Core: 2.0 / 48 kHz / 1509 kbps / 16-bit)
  404. DTS-HD Master Audio             English         1708 kbps       2.0 / 48 kHz / 1708 kbps / 16-bit (DTS Core: 2.0 / 48 kHz / 1509 kbps / 16-bit)
  405.  
  406. FILES:
  407.  
  408. Name            Time In         Length          Size            Total Bitrate  
  409. ----            -------         ------          ----            -------------  
  410. 00001.M2TS      0:00:00.000     0:03:36.983     869,318,592     32,051          
  411.  
  412. CHAPTERS:
  413.  
  414. Number          Time In         Length          Avg Video Rate  Max 1-Sec Rate  Max 1-Sec Time  Max 5-Sec Rate  Max 5-Sec Time  Max 10Sec Rate  Max 10Sec Time  Avg Frame Size  Max Frame Size  Max Frame Time  
  415. ------          -------         ------          --------------  --------------  --------------  --------------  --------------  --------------  --------------  --------------  --------------  --------------  
  416. 1               0:00:00.000     0:03:36.983     26,763 kbps     37,915 kbps     00:00:05.672    36,077 kbps     00:00:04.871    35,671 kbps     00:00:02.335    111,606 bytes   465,880 bytes   00:00:11.411    
  417.  
  418. STREAM DIAGNOSTICS:
  419.  
  420. File            PID             Type            Codec           Language                Seconds                 Bitrate                 Bytes           Packets        
  421. ----            ---             ----            -----           --------                --------------          --------------          -------------   -----          
  422. 00001.M2TS      4113 (0x1011)   0x1B            AVC                                     1521.887                27,980                  5,322,838,963   28,955,150      
  423. 00001.M2TS      4352 (0x1100)   0x86            DTS-HD MA       eng (English)           1521.887                1,715                   326,235,940     2,012,036      
  424. 00001.M2TS      4353 (0x1101)   0x86            DTS-HD MA       eng (English)           1521.887                1,715                   326,235,940     2,012,036      
  425.  
  426. [/code]
  427. <---- END FORUMS PASTE ---->
  428.  
  429. QUICK SUMMARY:
  430.  
  431. Disc Title: INVENTING_DAVID_GEFFEN_rmHD
  432. Disc Size: 35,610,753,000 bytes
  433. Protection: AACS
  434. BD-Java: No
  435. Playlist: 00004.MPLS
  436. Size: 869,318,592 bytes
  437. Length: 0:03:36.983
  438. Total Bitrate: 32.05 Mbps
  439. Video: MPEG-4 AVC Video / 26763 kbps / 1080i / 29.970 fps / 16:9 / High Profile 4.1
  440. Audio: English / DTS-HD Master Audio / 2.0 / 48 kHz / 1708 kbps / 16-bit (DTS Core: 2.0 / 48 kHz / 1509 kbps / 16-bit)
  441. Audio: English / DTS-HD Master Audio / 2.0 / 48 kHz / 1708 kbps / 16-bit (DTS Core: 2.0 / 48 kHz / 1509 kbps / 16-bit)
  442.  
  443.  
  444. ********************
  445. PLAYLIST: 00009.MPLS
  446. ********************
  447.  
  448. <--- BEGIN FORUMS PASTE --->
  449. [code]
  450.                                                                                                                 Total   Video                                            
  451. Title                                                           Codec   Length  Movie Size      Disc Size       Bitrate Bitrate Main Audio Track                          Secondary Audio Track
  452. -----                                                           ------  ------- --------------  --------------  ------- ------- ------------------                        ---------------------
  453. 00009.MPLS                                                      AVC     0:02:32 553,470,912     35,610,753,000  29.10   23.93   DTS-HD Master 2.0 1703Kbps (48kHz/16-bit) DTS-HD Master 2.0 1703Kbps (48kHz/16-bit)
  454. [/code]
  455.  
  456. [code]
  457.  
  458. DISC INFO:
  459.  
  460. Disc Title:     INVENTING_DAVID_GEFFEN_rmHD
  461. Disc Size:      35,610,753,000 bytes
  462. Protection:     AACS
  463. BD-Java:        No
  464. BDInfo:         0.5.8
  465.  
  466. PLAYLIST REPORT:
  467.  
  468. Name:                   00009.MPLS
  469. Length:                 0:02:32.152 (h:m:s.ms)
  470. Size:                   553,470,912 bytes
  471. Total Bitrate:          29.10 Mbps
  472.  
  473. VIDEO:
  474.  
  475. Codec                   Bitrate             Description    
  476. -----                   -------             -----------    
  477. MPEG-4 AVC Video        23934 kbps          1080i / 29.970 fps / 16:9 / High Profile 4.1
  478.  
  479. AUDIO:
  480.  
  481. Codec                           Language        Bitrate         Description    
  482. -----                           --------        -------         -----------    
  483. DTS-HD Master Audio             English         1703 kbps       2.0 / 48 kHz / 1703 kbps / 16-bit (DTS Core: 2.0 / 48 kHz / 1509 kbps / 16-bit)
  484. DTS-HD Master Audio             English         1703 kbps       2.0 / 48 kHz / 1703 kbps / 16-bit (DTS Core: 2.0 / 48 kHz / 1509 kbps / 16-bit)
  485.  
  486. FILES:
  487.  
  488. Name            Time In         Length          Size            Total Bitrate  
  489. ----            -------         ------          ----            -------------  
  490. 00001.M2TS      0:00:00.000     0:02:32.152     553,470,912     29,101          
  491.  
  492. CHAPTERS:
  493.  
  494. Number          Time In         Length          Avg Video Rate  Max 1-Sec Rate  Max 1-Sec Time  Max 5-Sec Rate  Max 5-Sec Time  Max 10Sec Rate  Max 10Sec Time  Avg Frame Size  Max Frame Size  Max Frame Time  
  495. ------          -------         ------          --------------  --------------  --------------  --------------  --------------  --------------  --------------  --------------  --------------  --------------  
  496. 1               0:00:00.000     0:02:32.152     23,934 kbps     29,259 kbps     00:02:22.342    25,524 kbps     00:02:21.541    24,783 kbps     00:00:03.036    99,805 bytes    307,716 bytes   00:00:06.406    
  497.  
  498. STREAM DIAGNOSTICS:
  499.  
  500. File            PID             Type            Codec           Language                Seconds                 Bitrate                 Bytes           Packets        
  501. ----            ---             ----            -----           --------                --------------          --------------          -------------   -----          
  502. 00001.M2TS      4113 (0x1011)   0x1B            AVC                                     1521.887                27,980                  5,322,838,963   28,955,150      
  503. 00001.M2TS      4352 (0x1100)   0x86            DTS-HD MA       eng (English)           1521.887                1,715                   326,235,940     2,012,036      
  504. 00001.M2TS      4353 (0x1101)   0x86            DTS-HD MA       eng (English)           1521.887                1,715                   326,235,940     2,012,036      
  505.  
  506. [/code]
  507. <---- END FORUMS PASTE ---->
  508.  
  509. QUICK SUMMARY:
  510.  
  511. Disc Title: INVENTING_DAVID_GEFFEN_rmHD
  512. Disc Size: 35,610,753,000 bytes
  513. Protection: AACS
  514. BD-Java: No
  515. Playlist: 00009.MPLS
  516. Size: 553,470,912 bytes
  517. Length: 0:02:32.152
  518. Total Bitrate: 29.10 Mbps
  519. Video: MPEG-4 AVC Video / 23934 kbps / 1080i / 29.970 fps / 16:9 / High Profile 4.1
  520. Audio: English / DTS-HD Master Audio / 2.0 / 48 kHz / 1703 kbps / 16-bit (DTS Core: 2.0 / 48 kHz / 1509 kbps / 16-bit)
  521. Audio: English / DTS-HD Master Audio / 2.0 / 48 kHz / 1703 kbps / 16-bit (DTS Core: 2.0 / 48 kHz / 1509 kbps / 16-bit)
  522.  
  523.  
  524. ********************
  525. PLAYLIST: 00002.MPLS
  526. ********************
  527.  
  528. <--- BEGIN FORUMS PASTE --->
  529. [code]
  530.                                                                                                                 Total   Video                                            
  531. Title                                                           Codec   Length  Movie Size      Disc Size       Bitrate Bitrate Main Audio Track                          Secondary Audio Track
  532. -----                                                           ------  ------- --------------  --------------  ------- ------- ------------------                        ---------------------
  533. 00002.MPLS                                                      AVC     0:02:01 483,207,552     35,610,753,000  31.78   26.35   DTS-HD Master 2.0 1776Kbps (48kHz/16-bit) DTS-HD Master 2.0 1776Kbps (48kHz/16-bit)
  534. [/code]
  535.  
  536. [code]
  537.  
  538. DISC INFO:
  539.  
  540. Disc Title:     INVENTING_DAVID_GEFFEN_rmHD
  541. Disc Size:      35,610,753,000 bytes
  542. Protection:     AACS
  543. BD-Java:        No
  544. BDInfo:         0.5.8
  545.  
  546. PLAYLIST REPORT:
  547.  
  548. Name:                   00002.MPLS
  549. Length:                 0:02:01.654 (h:m:s.ms)
  550. Size:                   483,207,552 bytes
  551. Total Bitrate:          31.78 Mbps
  552.  
  553. VIDEO:
  554.  
  555. Codec                   Bitrate             Description    
  556. -----                   -------             -----------    
  557. MPEG-4 AVC Video        26353 kbps          1080i / 29.970 fps / 16:9 / High Profile 4.1
  558.  
  559. AUDIO:
  560.  
  561. Codec                           Language        Bitrate         Description    
  562. -----                           --------        -------         -----------    
  563. DTS-HD Master Audio             English         1776 kbps       2.0 / 48 kHz / 1776 kbps / 16-bit (DTS Core: 2.0 / 48 kHz / 1509 kbps / 16-bit)
  564. DTS-HD Master Audio             English         1776 kbps       2.0 / 48 kHz / 1776 kbps / 16-bit (DTS Core: 2.0 / 48 kHz / 1509 kbps / 16-bit)
  565.  
  566. FILES:
  567.  
  568. Name            Time In         Length          Size            Total Bitrate  
  569. ----            -------         ------          ----            -------------  
  570. 00001.M2TS      0:00:00.000     0:02:01.654     483,207,552     31,776          
  571.  
  572. CHAPTERS:
  573.  
  574. Number          Time In         Length          Avg Video Rate  Max 1-Sec Rate  Max 1-Sec Time  Max 5-Sec Rate  Max 5-Sec Time  Max 10Sec Rate  Max 10Sec Time  Avg Frame Size  Max Frame Size  Max Frame Time  
  575. ------          -------         ------          --------------  --------------  --------------  --------------  --------------  --------------  --------------  --------------  --------------  --------------  
  576. 1               0:00:00.000     0:02:01.654     26,353 kbps     36,832 kbps     00:00:15.849    32,909 kbps     00:00:00.133    31,599 kbps     00:01:00.393    109,883 bytes   414,802 bytes   00:00:15.882    
  577.  
  578. STREAM DIAGNOSTICS:
  579.  
  580. File            PID             Type            Codec           Language                Seconds                 Bitrate                 Bytes           Packets        
  581. ----            ---             ----            -----           --------                --------------          --------------          -------------   -----          
  582. 00001.M2TS      4113 (0x1011)   0x1B            AVC                                     1521.887                27,980                  5,322,838,963   28,955,150      
  583. 00001.M2TS      4352 (0x1100)   0x86            DTS-HD MA       eng (English)           1521.887                1,715                   326,235,940     2,012,036      
  584. 00001.M2TS      4353 (0x1101)   0x86            DTS-HD MA       eng (English)           1521.887                1,715                   326,235,940     2,012,036      
  585.  
  586. [/code]
  587. <---- END FORUMS PASTE ---->
  588.  
  589. QUICK SUMMARY:
  590.  
  591. Disc Title: INVENTING_DAVID_GEFFEN_rmHD
  592. Disc Size: 35,610,753,000 bytes
  593. Protection: AACS
  594. BD-Java: No
  595. Playlist: 00002.MPLS
  596. Size: 483,207,552 bytes
  597. Length: 0:02:01.654
  598. Total Bitrate: 31.78 Mbps
  599. Video: MPEG-4 AVC Video / 26353 kbps / 1080i / 29.970 fps / 16:9 / High Profile 4.1
  600. Audio: English / DTS-HD Master Audio / 2.0 / 48 kHz / 1776 kbps / 16-bit (DTS Core: 2.0 / 48 kHz / 1509 kbps / 16-bit)
  601. Audio: English / DTS-HD Master Audio / 2.0 / 48 kHz / 1776 kbps / 16-bit (DTS Core: 2.0 / 48 kHz / 1509 kbps / 16-bit)
RAW Paste Data
We use cookies for various purposes including analytics. By continuing to use Pastebin, you agree to our use of cookies as described in the Cookies Policy. OK, I Understand
 
Top