Guest User

Untitled

a guest
Aug 23rd, 2016
61
Never
Not a member of Pastebin yet? Sign Up, it unlocks many cool features!
  1. General
  2. Unique ID : 253124637015350861856564848409306067073 (0xBE6E0824A27CB571B8D315D52121F081)
  3. Complete name : G:\Video\Neighbors.2.Sorority.Rising.2016.D.BDRip.1080p.ExKinoRay.mkv
  4. Format : Matroska
  5. Format version : Version 4 / Version 2
  6. File size : 11.4 GiB
  7. Duration : 1 h 32 min
  8. Overall bit rate : 17.7 Mb/s
  9. Movie name : Neighbors.2.Sorority.Rising.2016.D.BDRip.1080p.ExKinoRay
  10. Encoded date : UTC 2016-08-23 14:08:53
  11. Writing application : mkvmerge v8.3.0 ('Over the Horizon') 64bit
  12. Writing library : libebml v1.3.1 + libmatroska v1.4.2
  13.  
  14. Video
  15. ID : 1
  16. Format : AVC
  17. Format/Info : Advanced Video Codec
  18. Format profile : High@L4.1
  19. Format settings, CABAC : Yes
  20. Format settings, ReFrames : 5 frames
  21. Codec ID : V_MPEG4/ISO/AVC
  22. Duration : 1 h 32 min
  23. Bit rate : 15.8 Mb/s
  24. Width : 1 920 pixels
  25. Height : 800 pixels
  26. Display aspect ratio : 2.40:1
  27. Frame rate mode : Constant
  28. Frame rate : 23.976 (24000/1001) FPS
  29. Color space : YUV
  30. Chroma subsampling : 4:2:0
  31. Bit depth : 8 bits
  32. Scan type : Progressive
  33. Bits/(Pixel*Frame) : 0.428
  34. Stream size : 10.2 GiB (89%)
  35. Writing library : x264 core 146 r2538 121396c
  36. Encoding settings : cabac=1 / ref=5 / deblock=1:-3:-3 / analyse=0x3:0x133 / me=tesa / subme=11 / psy=1 / psy_rd=1.04:0.00 / mixed_ref=1 / me_range=32 / chroma_me=1 / trellis=2 / 8x8dct=1 / cqm=0 / deadzone=21,11 / fast_pskip=0 / chroma_qp_offset=-2 / threads=60 / lookahead_threads=6 / sliced_threads=0 / nr=0 / decimate=0 / interlaced=0 / bluray_compat=0 / constrained_intra=0 / bframes=9 / b_pyramid=2 / b_adapt=2 / b_bias=0 / direct=3 / weightb=1 / open_gop=0 / weightp=2 / keyint=240 / keyint_min=23 / scenecut=40 / intra_refresh=0 / rc_lookahead=150 / rc=crf / mbtree=0 / crf=15.3 / qcomp=0.60 / qpmin=0 / qpmax=69 / qpstep=4 / vbv_maxrate=62500 / vbv_bufsize=78125 / crf_max=0.0 / nal_hrd=none / filler=0 / ip_ratio=1.40 / pb_ratio=1.30 / aq=1:0.80
  37. Language : English
  38. Default : Yes
  39. Forced : No
  40.  
  41. Audio #1
  42. ID : 2
  43. Format : AC-3
  44. Format/Info : Audio Coding 3
  45. Mode extension : CM (complete main)
  46. Format settings, Endianness : Big
  47. Codec ID : A_AC3
  48. Duration : 1 h 32 min
  49. Bit rate mode : Constant
  50. Bit rate : 384 kb/s
  51. Channel(s) : 6 channels
  52. Channel positions : Front: L C R, Side: L R, LFE
  53. Sampling rate : 48.0 kHz
  54. Frame rate : 31.250 FPS (1536 spf)
  55. Compression mode : Lossy
  56. Stream size : 254 MiB (2%)
  57. Title : Dub [iTunes]
  58. Language : Russian
  59. Default : Yes
  60. Forced : No
  61.  
  62. Audio #2
  63. ID : 3
  64. Format : DTS
  65. Format/Info : Digital Theater Systems
  66. Mode : 16
  67. Format settings, Endianness : Big
  68. Codec ID : A_DTS
  69. Duration : 1 h 32 min
  70. Bit rate mode : Constant
  71. Bit rate : 1 509 kb/s
  72. Channel(s) : 6 channels
  73. Channel positions : Front: L C R, Side: L R, LFE
  74. Sampling rate : 48.0 kHz
  75. Frame rate : 93.750 FPS (512 spf)
  76. Bit depth : 24 bits
  77. Compression mode : Lossy
  78. Stream size : 997 MiB (9%)
  79. Title : Original
  80. Language : English
  81. Default : No
  82. Forced : No
  83.  
  84. Text #1
  85. ID : 4
  86. Format : UTF-8
  87. Codec ID : S_TEXT/UTF8
  88. Codec ID/Info : UTF-8 Plain Text
  89. Duration : 1 h 25 min
  90. Bit rate : 100 b/s
  91. Count of elements : 2127
  92. Stream size : 62.9 KiB (0%)
  93. Title : Full
  94. Language : English
  95. Default : No
  96. Forced : No
  97.  
  98. Text #2
  99. ID : 5
  100. Format : UTF-8
  101. Codec ID : S_TEXT/UTF8
  102. Codec ID/Info : UTF-8 Plain Text
  103. Duration : 1 h 25 min
  104. Bit rate : 108 b/s
  105. Count of elements : 2267
  106. Stream size : 68.0 KiB (0%)
  107. Title : SDH
  108. Language : English
  109. Default : No
  110. Forced : No
  111.  
  112. Menu
  113. 00:00:00.000 : en:Chapter 1
  114. 00:06:30.890 : en:Chapter 2
  115. 00:09:50.381 : en:Chapter 3
  116. 00:13:05.535 : en:Chapter 4
  117. 00:17:37.890 : en:Chapter 5
  118. 00:22:13.082 : en:Chapter 6
  119. 00:27:34.278 : en:Chapter 7
  120. 00:31:54.454 : en:Chapter 8
  121. 00:38:36.022 : en:Chapter 9
  122. 00:44:43.222 : en:Chapter 10
  123. 00:50:42.039 : en:Chapter 11
  124. 00:54:32.811 : en:Chapter 12
  125. 01:00:54.609 : en:Chapter 13
  126. 01:04:14.684 : en:Chapter 14
  127. 01:08:26.644 : en:Chapter 15
  128. 01:12:54.370 : en:Chapter 16
  129. 01:16:34.423 : en:Chapter 17
  130. 01:20:45.215 : en:Chapter 18
  131. 01:23:18.994 : en:Chapter 19
  132. 01:26:03.700 : en:Chapter 20
RAW Paste Data