Henry_Kr

SMoT-2020

Nov 2nd, 2020
388
Never
Not a member of Pastebin yet? Sign Up, it unlocks many cool features!
  1. Video
  2. ID : 1
  3. Format : AVC
  4. Format/Info : Advanced Video Codec
  5. Format profile : High@L4
  6. Format settings : CABAC / 4 Ref Frames
  7. Format settings, CABAC : Yes
  8. Format settings, Reference : 4 frames
  9. Muxing mode : Header stripping
  10. Codec ID : V_MPEG4/ISO/AVC
  11. Duration : 1 h 26 min
  12. Bit rate : 4 967 kb/s
  13. Width : 1 920 pixels
  14. Height : 1 080 pixels
  15. Display aspect ratio : 16:9
  16. Frame rate mode : Constant
  17. Frame rate : 23.976 (24000/1001) FPS
  18. Color space : YUV
  19. Chroma subsampling : 4:2:0
  20. Bit depth : 8 bits
  21. Scan type : Progressive
  22. Bits/(Pixel*Frame) : 0.100
  23. Stream size : 3.00 GiB (82%)
  24. Title : Superman.Man.of.Tomorrow.2020.1080p.BluRay.[CartoonNOW]
  25. Language : English
  26. Default : Yes
  27. Forced : No
  28. Color range : Limited
  29. Color primaries : BT.709
  30. Transfer characteristics : BT.709
  31. Matrix coefficients : BT.709
  32.  
  33. Audio #1
  34. ID : 2
  35. Format : AC-3
  36. Format/Info : Audio Coding 3
  37. Commercial name : Dolby Digital
  38. Muxing mode : Header stripping
  39. Codec ID : A_AC3
  40. Duration : 1 h 26 min
  41. Bit rate mode : Constant
  42. Bit rate : 224 kb/s
  43. Channel(s) : 2 channels
  44. Channel layout : L R
  45. Sampling rate : 48.0 kHz
  46. Frame rate : 31.250 FPS (1536 SPF)
  47. Compression mode : Lossy
  48. Stream size : 138 MiB (4%)
  49. Title : AC3 2.0 (Universal Cinergia)
  50. Language : Portuguese
  51. Service kind : Complete Main
  52. Default : Yes
  53. Forced : No
  54.  
  55. Audio #2
  56. ID : 3
  57. Format : E-AC-3
  58. Format/Info : Enhanced AC-3
  59. Commercial name : Dolby Digital Plus
  60. Muxing mode : Header stripping
  61. Codec ID : A_EAC3
  62. Duration : 1 h 26 min
  63. Bit rate mode : Constant
  64. Bit rate : 384 kb/s
  65. Channel(s) : 6 channels
  66. Channel layout : L R C LFE Ls Rs
  67. Sampling rate : 48.0 kHz
  68. Frame rate : 31.250 FPS (1536 SPF)
  69. Compression mode : Lossy
  70. Stream size : 237 MiB (6%)
  71. Title : E-AC3 5.1 (Miami)
  72. Language : Portuguese
  73. Service kind : Complete Main
  74. Default : No
  75. Forced : No
  76.  
  77. Audio #3
  78. ID : 4
  79. Format : AC-3
  80. Format/Info : Audio Coding 3
  81. Commercial name : Dolby Digital
  82. Muxing mode : Header stripping
  83. Codec ID : A_AC3
  84. Duration : 1 h 26 min
  85. Bit rate mode : Constant
  86. Bit rate : 384 kb/s
  87. Channel(s) : 6 channels
  88. Channel layout : L R C LFE Ls Rs
  89. Sampling rate : 48.0 kHz
  90. Frame rate : 31.250 FPS (1536 SPF)
  91. Compression mode : Lossy
  92. Stream size : 237 MiB (6%)
  93. Title : AC3 5.1
  94. Language : English
  95. Service kind : Complete Main
  96. Default : No
  97. Forced : No
  98.  
  99. Text #1
  100. ID : 5
  101. Format : UTF-8
  102. Codec ID : S_TEXT/UTF8
  103. Codec ID/Info : UTF-8 Plain Text
  104. Title : Forçada
  105. Language : Portuguese
  106. Default : No
  107. Forced : Yes
  108.  
  109. Text #2
  110. ID : 6
  111. Format : UTF-8
  112. Codec ID : S_TEXT/UTF8
  113. Codec ID/Info : UTF-8 Plain Text
  114. Title : Completa
  115. Language : Portuguese
  116. Default : No
  117. Forced : No
  118.  
  119. Menu
  120. 00:00:00.000 : en:1
  121. 00:09:23.688 : en:2
  122. 00:20:05.871 : en:3
  123. 00:31:05.988 : en:4
  124. 00:40:23.127 : en:5
  125. 00:47:54.828 : en:6
  126. 00:57:26.566 : en:7
  127. 01:07:07.979 : en:8
  128. 01:15:52.211 : en:9
  129. 01:22:46.583 : en:10
  130.  
RAW Paste Data