daily pastebin goal
41%
SHARE
TWEET

Untitled

a guest Jan 19th, 2018 52 Never
Not a member of Pastebin yet? Sign Up, it unlocks many cool features!
  1. Exact Audio Copy V1.0 beta 3 from 29. August 2011
  2.  
  3. EAC extraction logfile from 11. October 2011, 23:16
  4.  
  5. ALBINO! / Live in San Francisco
  6.  
  7. Used drive  : HL-DT-STDVD+-RW GS20N   Adapter: 3  ID: 0
  8.  
  9. Read mode               : Secure
  10. Utilize accurate stream : Yes
  11. Defeat audio cache      : Yes
  12. Make use of C2 pointers : No
  13.  
  14. Read offset correction                      : 667
  15. Overread into Lead-In and Lead-Out          : No
  16. Fill up missing offset samples with silence : Yes
  17. Delete leading and trailing silent blocks   : No
  18. Null samples used in CRC calculations       : Yes
  19. Used interface                              : Native Win32 interface for Win NT & 2000
  20. Gap handling                                : Appended to previous track
  21.  
  22. Used output format              : User Defined Encoder
  23. Selected bitrate                : 768 kBit/s
  24. Quality                         : High
  25. Add ID3 tag                     : No
  26. Command line compressor         : C:\Program Files (x86)\Exact Audio Copy\FLAC\FLAC.EXE
  27. Additional command line options : -8 -V -T "ARTIST=%artist%" -T "TITLE=%title%" -T "ALBUM=%albumtitle%" -T "DATE=%year%" -T "TRACKNUMBER=%tracknr%" -T "GENRE=%genre%" -T "COMMENT=%comment%" -T "BAND=%albuminterpret%" -T "ALBUMARTIST=%albuminterpret%" -T "COMPOSER=%composer%" %haslyrics%--tag-from-file=LYRICS="%lyricsfile%"%haslyrics% -T "DISCNUMBER=%cdnumber%" -T "TOTALDISCS=%totalcds%" -T "TOTALTRACKS=%numtracks%" %hascover%--picture="%coverfile%"%hascover% %source% -o %dest%
  28.  
  29.  
  30. TOC of the extracted CD
  31.  
  32.      Track |   Start  |  Length  | Start sector | End sector
  33.     ---------------------------------------------------------
  34.         1  |  0:00.00 |  8:59.33 |         0    |    40457  
  35.         2  |  8:59.33 | 11:22.17 |     40458    |    91624  
  36.         3  | 20:21.50 |  8:21.10 |     91625    |   129209  
  37.         4  | 28:42.60 | 15:46.10 |    129210    |   200169  
  38.         5  | 44:28.70 |  4:09.09 |    200170    |   218853  
  39.  
  40.  
  41. Track  1
  42.  
  43.      Filename G:\EACrips\01 No Go Sell - ALBINO!.wav
  44.  
  45.      Pre-gap length  0:00:02.00
  46.  
  47.      Peak level 97.7 %
  48.      Extraction speed 3.3 X
  49.      Track quality 100.0 %
  50.      Test CRC 46F7BDFA
  51.      Copy CRC 46F7BDFA
  52.      Track not present in AccurateRip database
  53.      Copy OK
  54.  
  55. Track  2
  56.  
  57.      Filename G:\EACrips\02 Deconstruction - ALBINO!.wav
  58.  
  59.      Peak level 97.7 %
  60.      Extraction speed 3.8 X
  61.      Track quality 99.9 %
  62.      Test CRC F8150FED
  63.      Copy CRC F8150FED
  64.      Track not present in AccurateRip database
  65.      Copy OK
  66.  
  67. Track  3
  68.  
  69.      Filename G:\EACrips\03 Are We Safe Yet - ALBINO!.wav
  70.  
  71.      Peak level 97.7 %
  72.      Extraction speed 4.5 X
  73.      Track quality 100.0 %
  74.      Test CRC 362A7258
  75.      Copy CRC 362A7258
  76.      Track not present in AccurateRip database
  77.      Copy OK
  78.  
  79. Track  4
  80.  
  81.      Filename G:\EACrips\04 Feel Alright - ALBINO!.wav
  82.  
  83.      Peak level 97.7 %
  84.      Extraction speed 5.2 X
  85.      Track quality 100.0 %
  86.      Test CRC 70D2AF7E
  87.      Copy CRC 70D2AF7E
  88.      Track not present in AccurateRip database
  89.      Copy OK
  90.  
  91. Track  5
  92.  
  93.      Filename G:\EACrips\05 Puppet Boy - ALBINO!.wav
  94.  
  95.      Peak level 97.7 %
  96.      Extraction speed 5.1 X
  97.      Track quality 100.0 %
  98.      Test CRC 67683DA0
  99.      Copy CRC 67683DA0
  100.      Track not present in AccurateRip database
  101.      Copy OK
  102.  
  103.  
  104. None of the tracks are present in the AccurateRip database
  105.  
  106. No errors occurred
  107.  
  108. End of status report
  109.  
  110. ==== Log checksum D825D2DED5A26E6896F754A159B5F08E44052ECDD78F49D61E7F6EEFA71E45F6 ====
RAW Paste Data
We use cookies for various purposes including analytics. By continuing to use Pastebin, you agree to our use of cookies as described in the Cookies Policy. OK, I Understand
 
Top