GrabHD

Untitled

Feb 23rd, 2020
94
Never
Not a member of Pastebin yet? Sign Up, it unlocks many cool features!
  1. General
  2. Unique ID : 251865182249152096752663777359392076822 (0xBD7B783A9A81958095212E45C642F416)
  3. Complete name : Posledniy.brosok.2019.WEB-DL.1080p.mkv
  4. Format : Matroska
  5. Format version : Version 4 / Version 2
  6. File size : 3.50 GiB
  7. Duration : 1 h 42 min
  8. Overall bit rate : 4 872 kb/s
  9. Encoded date : UTC 2019-12-19 12:41:42
  10. Writing application : mkvmerge v7.8.0 ('River Man') 32bit built on Apr 3 2015 12:11:22
  11. Writing library : libebml v1.3.1 + libmatroska v1.4.2
  12.  
  13. Video
  14. ID : 1
  15. Format : AVC
  16. Format/Info : Advanced Video Codec
  17. Format profile : High@L4
  18. Format settings, CABAC : Yes
  19. Format settings, RefFrames : 5 frames
  20. Codec ID : V_MPEG4/ISO/AVC
  21. Duration : 1 h 42 min
  22. Bit rate : 4 486 kb/s
  23. Width : 1 920 pixels
  24. Height : 800 pixels
  25. Display aspect ratio : 2.40:1
  26. Frame rate mode : Constant
  27. Frame rate : 24.000 FPS
  28. Color space : YUV
  29. Chroma subsampling : 4:2:0
  30. Bit depth : 8 bits
  31. Scan type : Progressive
  32. Bits/(Pixel*Frame) : 0.122
  33. Stream size : 3.23 GiB (92%)
  34. Language : Russian
  35. Default : Yes
  36. Forced : No
  37. Color range : Limited
  38. Color primaries : BT.709
  39. Transfer characteristics : BT.709
  40. Matrix coefficients : BT.709
  41.  
  42. Audio
  43. ID : 2
  44. Format : AC-3
  45. Format/Info : Audio Coding 3
  46. Format settings, Endianness : Big
  47. Codec ID : A_AC3
  48. Duration : 1 h 42 min
  49. Bit rate mode : Constant
  50. Bit rate : 384 kb/s
  51. Channel(s) : 6 channels
  52. Channel positions : Front: L C R, Side: L R, LFE
  53. Sampling rate : 48.0 kHz
  54. Frame rate : 31.250 FPS (1536 SPF)
  55. Bit depth : 16 bits
  56. Compression mode : Lossy
  57. Stream size : 283 MiB (8%)
  58. Title : iTunes
  59. Language : Russian
  60. Service kind : Complete Main
  61. Default : Yes
  62. Forced : No
  63.  
  64. Menu
  65. 00:00:00.000 : en:Глава 1
  66. 00:08:54.416 : en:Глава 2
  67. 00:17:48.624 : en:Глава 3
  68. 00:25:01.914 : en:Глава 4
  69. 00:33:36.164 : en:Глава 5
  70. 00:41:50.664 : en:Глава 6
  71. 00:49:46.247 : en:Глава 7
  72. 00:58:24.122 : en:Глава 8
  73. 01:07:21.122 : en:Глава 9
  74. 01:15:42.955 : en:Глава 10
  75. 01:24:30.121 : en:Глава 11
  76. 01:33:51.412 : en:Глава 12
RAW Paste Data