SHARE
TWEET

Cabin.Boy.1994.REPACK.1080p.BluRay.REMUX.AVC.DTS-HD.MA.2.0-EPSiLON

a guest Jun 13th, 2019 19 Never
Not a member of Pastebin yet? Sign Up, it unlocks many cool features!
  1. General
  2. Unique ID                                : 114433297632412063479187532532556970916 (0x56170D2C1FA98ACF16A0184A5C5F3BA4)
  3. Complete name                            : Cabin.Boy.1994.REPACK.1080p.BluRay.REMUX.AVC.DTS-HD.MA.2.0-EPSiLON.mkv
  4. Format                                   : Matroska
  5. Format version                           : Version 4
  6. File size                                : 16.9 GiB
  7. Duration                                 : 1 h 20 min
  8. Overall bit rate mode                    : Variable
  9. Overall bit rate                         : 30.1 Mb/s
  10. Movie name                               : Cabin Boy (1994)
  11. Encoded date                             : UTC 2018-10-16 23:23:43
  12. Writing application                      : mkvmerge v27.0.0 ('Metropolis') 64-bit
  13. Writing library                          : libebml v1.3.6 + libmatroska v1.4.9
  14.  
  15. Video
  16. ID                                       : 1
  17. Format                                   : AVC
  18. Format/Info                              : Advanced Video Codec
  19. Format profile                           : High@L4.1
  20. Format settings                          : CABAC / 3 Ref Frames
  21. Format settings, CABAC                   : Yes
  22. Format settings, Reference frames        : 3 frames
  23. Format settings, GOP                     : M=3, N=12
  24. Codec ID                                 : V_MPEG4/ISO/AVC
  25. Duration                                 : 1 h 20 min
  26. Bit rate mode                            : Variable
  27. Bit rate                                 : 28.3 Mb/s
  28. Maximum bit rate                         : 32.3 Mb/s
  29. Width                                    : 1 920 pixels
  30. Height                                   : 1 080 pixels
  31. Display aspect ratio                     : 16:9
  32. Frame rate mode                          : Constant
  33. Frame rate                               : 23.976 (24000/1001) FPS
  34. Standard                                 : NTSC
  35. Color space                              : YUV
  36. Chroma subsampling                       : 4:2:0
  37. Bit depth                                : 8 bits
  38. Scan type                                : Progressive
  39. Bits/(Pixel*Frame)                       : 0.569
  40. Stream size                              : 15.9 GiB (94%)
  41. Title                                    : MPEG-4 AVC Video / 28431 kbps / 1080p / 23.976 fps / 16:9 / High Profile 4.1
  42. Language                                 : English
  43. Default                                  : Yes
  44. Forced                                   : No
  45. Color range                              : Limited
  46. Color primaries                          : BT.709
  47. Transfer characteristics                 : BT.709
  48. Matrix coefficients                      : BT.709
  49.  
  50. Audio #1
  51. ID                                       : 2
  52. Format                                   : DTS XLL
  53. Format/Info                              : Digital Theater Systems
  54. Commercial name                          : DTS-HD Master Audio
  55. Codec ID                                 : A_DTS
  56. Duration                                 : 1 h 20 min
  57. Bit rate mode                            : Variable
  58. Bit rate                                 : 1 560 kb/s
  59. Channel(s)                               : 2 channels
  60. Channel layout                           : L R
  61. Sampling rate                            : 48.0 kHz
  62. Frame rate                               : 93.750 FPS (512 SPF)
  63. Bit depth                                : 16 bits
  64. Compression mode                         : Lossless
  65. Delay relative to video                  : 11 s 10 ms
  66. Stream size                              : 895 MiB (5%)
  67. Title                                    : DTS-HD Master Audio / 2.0 / 48 kHz / 1556 kbps / 16-bit
  68. Language                                 : English
  69. Default                                  : Yes
  70. Forced                                   : No
  71.  
  72. Audio #2
  73. ID                                       : 3
  74. Format                                   : AC-3
  75. Format/Info                              : Audio Coding 3
  76. Commercial name                          : Dolby Digital
  77. Codec ID                                 : A_AC3
  78. Duration                                 : 1 h 20 min
  79. Bit rate mode                            : Constant
  80. Bit rate                                 : 192 kb/s
  81. Channel(s)                               : 2 channels
  82. Channel layout                           : L R
  83. Sampling rate                            : 48.0 kHz
  84. Frame rate                               : 31.250 FPS (1536 SPF)
  85. Bit depth                                : 16 bits
  86. Compression mode                         : Lossy
  87. Delay relative to video                  : 11 s 10 ms
  88. Stream size                              : 110 MiB (1%)
  89. Title                                    : Commentary by Writer/Director Adam Resnick, Actor Chris Elliot and Moderator Mike Sacks
  90. Language                                 : English
  91. Service kind                             : Complete Main
  92. Default                                  : No
  93. Forced                                   : No
  94.  
  95. Text
  96. ID                                       : 4
  97. Format                                   : PGS
  98. Codec ID                                 : S_HDMV/PGS
  99. Codec ID/Info                            : Picture based subtitle format used on BDs/HD-DVDs
  100. Duration                                 : 1 h 17 min
  101. Bit rate                                 : 33.2 kb/s
  102. Count of elements                        : 1949
  103. Stream size                              : 18.4 MiB (0%)
  104. Language                                 : English
  105. Default                                  : No
  106. Forced                                   : No
  107.  
  108. Menu
  109. 00:00:00.000                             : en:Chapter 1
  110. 00:11:19.929                             : en:Chapter 2
  111. 00:21:10.978                             : en:Chapter 3
  112. 00:30:47.095                             : en:Chapter 4
  113. 00:40:25.089                             : en:Chapter 5
  114. 00:50:47.086                             : en:Chapter 6
  115. 00:58:08.985                             : en:Chapter 7
  116. 01:11:06.012                             : en:Chapter 8
RAW Paste Data
We use cookies for various purposes including analytics. By continuing to use Pastebin, you agree to our use of cookies as described in the Cookies Policy. OK, I Understand
 
Top