dirtyharrys

Miss Bala BluRay 720p

Apr 25th, 2019
92
Never
Not a member of Pastebin yet? Sign Up, it unlocks many cool features!
  1. General
  2. Unique ID : 38611809542309188830336445203745116173 (0x1D0C5D3071BC276A299DDD325054900D)
  3. Complete name : E:\QlJSTWlzc0JhbGE.mkv
  4. Format : Matroska
  5. Format version : Version 4
  6. File size : 1.75 GiB
  7. Duration : 1 h 43 min
  8. Overall bit rate : 2 406 kb/s
  9. Movie name : Miss Bala BR-RIP / Miss Bala BR-RIP
  10. Encoded date : UTC 2019-04-25 06:31:52
  11. Writing application : mkvmerge v30.1.0 ('Forever And More') 32-bit
  12. Writing library : libebml v1.3.6 + libmatroska v1.4.9
  13. Copyright : Movies HDs 2019
  14. ARTIST : HarshLearner
  15.  
  16. Video
  17. ID : 1
  18. Format : AVC
  19. Format/Info : Advanced Video Codec
  20. Format profile : High@L4.1
  21. Format settings : CABAC / 4 Ref Frames
  22. Format settings, CABAC : Yes
  23. Format settings, ReFrames : 4 frames
  24. Codec ID : V_MPEG4/ISO/AVC
  25. Duration : 1 h 43 min
  26. Bit rate : 1 500 kb/s
  27. Width : 1 280 pixels
  28. Height : 536 pixels
  29. Display aspect ratio : 2.40:1
  30. Frame rate mode : Constant
  31. Frame rate : 23.976 (23976/1000) FPS
  32. Color space : YUV
  33. Chroma subsampling : 4:2:0
  34. Bit depth : 8 bits
  35. Scan type : Progressive
  36. Bits/(Pixel*Frame) : 0.091
  37. Stream size : 1.09 GiB (62%)
  38. Title : Miss Bala
  39. Writing library : x264 core 152 r2851M ba24899
  40. Default : Yes
  41. Forced : No
  42.  
  43. Audio #1
  44. ID : 2
  45. Format : AC-3
  46. Format/Info : Audio Coding 3
  47. Commercial name : Dolby Digital
  48. Codec ID : A_AC3
  49. Duration : 1 h 43 min
  50. Bit rate mode : Constant
  51. Bit rate : 448 kb/s
  52. Channel(s) : 6 channels
  53. Channel layout : L R C LFE Ls Rs
  54. Sampling rate : 48.0 kHz
  55. Frame rate : 31.250 FPS (1536 SPF)
  56. Bit depth : 16 bits
  57. Compression mode : Lossy
  58. Stream size : 333 MiB (19%)
  59. Language : English
  60. Service kind : Complete Main
  61. Default : No
  62. Forced : No
  63.  
  64. Audio #2
  65. ID : 3
  66. Format : AC-3
  67. Format/Info : Audio Coding 3
  68. Commercial name : Dolby Digital
  69. Codec ID : A_AC3
  70. Duration : 1 h 43 min
  71. Bit rate mode : Constant
  72. Bit rate : 448 kb/s
  73. Channel(s) : 6 channels
  74. Channel layout : L R C LFE Ls Rs
  75. Sampling rate : 48.0 kHz
  76. Frame rate : 31.250 FPS (1536 SPF)
  77. Bit depth : 16 bits
  78. Compression mode : Lossy
  79. Stream size : 333 MiB (19%)
  80. Language : Spanish
  81. Service kind : Complete Main
  82. Default : Yes
  83. Forced : Yes
  84.  
  85. Text #1
  86. ID : 4
  87. Format : PGS
  88. Muxing mode : zlib
  89. Codec ID : S_HDMV/PGS
  90. Codec ID/Info : Picture based subtitle format used on BDs/HD-DVDs
  91. Duration : 1 h 42 min
  92. Bit rate : 15.4 kb/s
  93. Count of elements : 1352
  94. Stream size : 11.3 MiB (1%)
  95. Language : Spanish
  96. Default : No
  97. Forced : No
  98.  
  99. Text #2
  100. ID : 5
  101. Format : UTF-8
  102. Codec ID : S_TEXT/UTF8
  103. Codec ID/Info : UTF-8 Plain Text
  104. Duration : 1 h 36 min
  105. Bit rate : 35 b/s
  106. Count of elements : 951
  107. Stream size : 24.9 KiB (0%)
  108. Language : English
  109. Default : No
  110. Forced : No
  111.  
  112. Text #3
  113. ID : 6
  114. Format : UTF-8
  115. Codec ID : S_TEXT/UTF8
  116. Codec ID/Info : UTF-8 Plain Text
  117. Duration : 1 h 37 min
  118. Bit rate : 34 b/s
  119. Count of elements : 854
  120. Stream size : 24.3 KiB (0%)
  121. Language : Spanish
  122. Default : Yes
  123. Forced : Yes
  124.  
  125. Menu
  126. 00:00:00.000 : :Chapter 01
  127. 00:05:31.706 : :Chapter 02
  128. 00:12:15.777 : :Chapter 03
  129. 00:17:39.600 : :Chapter 04
  130. 00:24:00.439 : :Chapter 05
  131. 00:27:02.621 : :Chapter 06
  132. 00:35:19.034 : :Chapter 07
  133. 00:41:09.801 : :Chapter 08
  134. 00:46:20.236 : :Chapter 09
  135. 00:55:58.021 : :Chapter 10
  136. 00:59:22.768 : :Chapter 11
  137. 01:03:48.950 : :Chapter 12
  138. 01:09:17.945 : :Chapter 13
  139. 01:20:28.741 : :Chapter 14
  140. 01:25:28.373 : :Chapter 15
RAW Paste Data