GrabHD

Untitled

Mar 4th, 2020
149
Never
Not a member of Pastebin yet? Sign Up, it unlocks many cool features!
  1. General
  2. Unique ID : 298610509781226554233659254929918976141 (0xE0A64AD0DF56D7D93605C161F482E08D)
  3. Complete name : MARAFON_ZHELANIJ_2020_WEB-DL_1080p-BLUEBIRD.mkv
  4. Format : Matroska
  5. Format version : Version 4 / Version 2
  6. File size : 3.14 GiB
  7. Duration : 1 h 29 min
  8. Overall bit rate : 5 004 kb/s
  9. Encoded date : UTC 2020-03-04 20:38:59
  10. Writing application : mkvmerge v43.0.0 ('The Quartermaster') 64-bit
  11. Writing library : libebml v1.3.10 + libmatroska v1.5.2
  12. Cover : Yes
  13. Attachments : cover5.png
  14.  
  15. Video
  16. ID : 1
  17. Format : AVC
  18. Format/Info : Advanced Video Codec
  19. Format profile : High@L4
  20. Format settings, CABAC : Yes
  21. Format settings, RefFrames : 5 frames
  22. Codec ID : V_MPEG4/ISO/AVC
  23. Duration : 1 h 29 min
  24. Bit rate : 4 616 kb/s
  25. Width : 1 920 pixels
  26. Height : 804 pixels
  27. Display aspect ratio : 2.40:1
  28. Frame rate mode : Constant
  29. Frame rate : 25.000 FPS
  30. Color space : YUV
  31. Chroma subsampling : 4:2:0
  32. Bit depth : 8 bits
  33. Scan type : Progressive
  34. Bits/(Pixel*Frame) : 0.120
  35. Stream size : 2.90 GiB (92%)
  36. Language : English
  37. Default : Yes
  38. Forced : No
  39. Color range : Limited
  40. Color primaries : BT.709
  41. Transfer characteristics : BT.709
  42. Matrix coefficients : BT.709
  43.  
  44. Audio
  45. ID : 2
  46. Format : AC-3
  47. Format/Info : Audio Coding 3
  48. Format settings, Endianness : Big
  49. Codec ID : A_AC3
  50. Duration : 1 h 29 min
  51. Bit rate mode : Constant
  52. Bit rate : 384 kb/s
  53. Channel(s) : 6 channels
  54. Channel positions : Front: L C R, Side: L R, LFE
  55. Sampling rate : 48.0 kHz
  56. Frame rate : 31.250 FPS (1536 SPF)
  57. Bit depth : 16 bits
  58. Compression mode : Lossy
  59. Delay relative to video : -40 ms
  60. Stream size : 247 MiB (8%)
  61. Title : [ORIGINAL] DD 5.1 @ 384 kbps (iTunes)
  62. Language : Russian
  63. Service kind : Complete Main
  64. Default : Yes
  65. Forced : No
  66.  
  67. Menu
  68. 00:00:00.000 : en:Глава 1
  69. 00:08:04.440 : en:Глава 2
  70. 00:16:18.160 : en:Глава 3
  71. 00:24:37.600 : en:Глава 4
  72. 00:32:52.760 : en:Глава 5
  73. 00:41:14.080 : en:Глава 6
  74. 00:49:22.480 : en:Глава 7
  75. 00:56:31.280 : en:Глава 8
  76. 01:04:40.640 : en:Глава 9
  77. 01:13:15.640 : en:Глава 10
  78. 01:21:25.640 : en:Глава 11
RAW Paste Data