daily pastebin goal
45%
SHARE
TWEET

Arrival_UHD

iMN0 Jul 15th, 2017 515 Never
Not a member of Pastebin yet? Sign Up, it unlocks many cool features!
  1. General
  2. Unique ID                                : 208326376990199733433144479159051634927 (0x9CBA336557AA62A89306B47F7FFC48EF)
  3. Format                                   : Matroska
  4. Format version                           : Version 4 / Version 2
  5. File size                                : 10.2 GiB
  6. Duration                                 : 1 h 56 min
  7. Overall bit rate                         : 12.5 Mb/s
  8. Encoded date                             : UTC 2017-04-24 15:32:06
  9. Writing application                      : mkvmerge v9.6.0 ('Slave To Your Mind') 64bit
  10. Writing library                          : libebml v1.3.4 + libmatroska v1.4.5
  11.  
  12. Video
  13. ID                                       : 1
  14. Format                                   : HEVC
  15. Format/Info                              : High Efficiency Video Coding
  16. Format profile                           : Main 10@L5@Main
  17. Codec ID                                 : V_MPEGH/ISO/HEVC
  18. Duration                                 : 1 h 56 min
  19. Bit rate                                 : 12.0 Mb/s
  20. Width                                    : 3 840 pixels
  21. Height                                   : 1 608 pixels
  22. Display aspect ratio                     : 2.40:1
  23. Frame rate mode                          : Constant
  24. Frame rate                               : 23.976 (24000/1001) FPS
  25. Original frame rate                      : 23.976 (23976/1000) FPS
  26. Color space                              : YUV
  27. Chroma subsampling                       : 4:2:0
  28. Bit depth                                : 10 bits
  29. Bits/(Pixel*Frame)                       : 0.081
  30. Stream size                              : 9.75 GiB (96%)
  31. Title                                    : HEVC x265 10bit Video / 12000 kbps / 2160p / 23.976 fps / Main 10 Profile 5
  32. Writing library                          : x265 1.9:[Linux][GCC 4.6.2][64 bit] 10bit
  33. Encoding settings                        : wpp / ctu=64 / min-cu-size=8 / max-tu-size=32 / tu-intra-depth=1 / tu-inter-depth=1 / me=1 / subme=2 / merange=57 / no-rect / no-amp / max-merge=2 / temporal-mvp / no-early-skip / rdpenalty=0 / no-tskip / no-tskip-fast / strong-intra-smoothing / no-lossless / no-cu-lossless / no-constrained-intra / fast-intra / no-open-gop / no-temporal-layers / interlace=0 / keyint=250 / min-keyint=23 / scenecut=40 / rc-lookahead=15 / lookahead-slices=8 / bframes=4 / bframe-bias=0 / b-adapt=2 / ref=3 / limit-refs=3 / no-limit-modes / weightp / no-weightb / aq-mode=1 / qg-size=32 / aq-strength=1.00 / cbqpoffs=0 / crqpoffs=0 / rd=2 / psy-rd=2.00 / rdoq-level=0 / psy-rdoq=0.00 / signhide / deblock / sao / no-sao-non-deblock / b-pyramid / cutree / no-intra-refresh / rc=2 / pass / bitrate=12000 / qcomp=0.60 / qpmin=0 / qpmax=51 / qpstep=4 / cplxblur=20.0 / qblur=0.5 / ipratio=1.40 / pbratio=1.30
  34. Default                                  : Yes
  35. Forced                                   : No
  36. Color range                              : Limited
  37. Color primaries                          : BT.2020
  38. Transfer characteristics                 : SMPTE ST 2084
  39. Matrix coefficients                      : BT.2020 non-constant
  40.  
  41. Audio
  42. ID                                       : 2
  43. Format                                   : AAC
  44. Format/Info                              : Advanced Audio Codec
  45. Format profile                           : LC
  46. Codec ID                                 : A_AAC
  47. Duration                                 : 1 h 56 min
  48. Bit rate                                 : 508 kb/s
  49. Channel(s)                               : 7 channels
  50. Channel(s)_Original                      : 8 channels
  51. Channel positions                        : Front: L C R, Side: L R, Back: L R, LFE
  52. Sampling rate                            : 48.0 kHz
  53. Frame rate                               : 46.875 FPS (1024 spf)
  54. Compression mode                         : Lossy
  55. Delay relative to video                  : 9 ms
  56. Stream size                              : 423 MiB (4%)
  57. Title                                    : LC-AAC / 7.1 / 48 kHz
  58. Language                                 : English
  59. Default                                  : No
  60. Forced                                   : No
  61.  
  62. Text #1
  63. ID                                       : 3
  64. Format                                   : UTF-8
  65. Codec ID                                 : S_TEXT/UTF8
  66. Codec ID/Info                            : UTF-8 Plain Text
  67. Duration                                 : 2 min 33 s
  68. Bit rate                                 : 7 b/s
  69. Count of elements                        : 8
  70. Stream size                              : 151 Bytes (0%)
  71. Language                                 : English
  72. Default                                  : No
  73. Forced                                   : No
  74.  
  75. Text #2
  76. ID                                       : 4
  77. Format                                   : UTF-8
  78. Codec ID                                 : S_TEXT/UTF8
  79. Codec ID/Info                            : UTF-8 Plain Text
  80. Duration                                 : 1 h 48 min
  81. Bit rate                                 : 53 b/s
  82. Count of elements                        : 1231
  83. Stream size                              : 43.0 KiB (0%)
  84. Language                                 : English
  85. Default                                  : No
  86. Forced                                   : No
  87.  
  88. Text #3
  89. ID                                       : 5
  90. Format                                   : UTF-8
  91. Codec ID                                 : S_TEXT/UTF8
  92. Codec ID/Info                            : UTF-8 Plain Text
  93. Duration                                 : 1 h 48 min
  94. Bit rate                                 : 60 b/s
  95. Count of elements                        : 1414
  96. Stream size                              : 48.2 KiB (0%)
  97. Language                                 : English
  98. Default                                  : No
  99. Forced                                   : No
  100.  
  101. Text #4
  102. ID                                       : 6
  103. Format                                   : UTF-8
  104. Codec ID                                 : S_TEXT/UTF8
  105. Codec ID/Info                            : UTF-8 Plain Text
  106. Duration                                 : 1 h 48 min
  107. Bit rate                                 : 68 b/s
  108. Count of elements                        : 1009
  109. Stream size                              : 54.6 KiB (0%)
  110. Language                                 : Arabic
  111. Default                                  : No
  112. Forced                                   : No
  113.  
  114. Menu
  115. 00:00:00.000                             : en:00:00:00.000
  116. 00:09:49.213                             : en:00:09:49.213
  117. 00:17:32.842                             : en:00:17:32.842
  118. 00:23:27.571                             : en:00:23:27.571
  119. 00:33:53.447                             : en:00:33:53.447
  120. 00:41:00.999                             : en:00:41:00.999
  121. 00:52:25.392                             : en:00:52:25.392
  122. 00:57:33.867                             : en:00:57:33.867
  123. 01:03:05.740                             : en:01:03:05.740
  124. 01:09:28.497                             : en:01:09:28.497
  125. 01:16:08.689                             : en:01:16:08.689
  126. 01:25:21.115                             : en:01:25:21.115
  127. 01:35:36.355                             : en:01:35:36.355
  128. 01:45:25.985                             : en:01:45:25.985
RAW Paste Data
We use cookies for various purposes including analytics. By continuing to use Pastebin, you agree to our use of cookies as described in the Cookies Policy. OK, I Understand
 
Top