Advertisement
yushiro

p.Texas, 1870 (El Retorno de Sabata) 1971[BDRemux 1080p].yus

Jan 11th, 2021
204
0
Never
Not a member of Pastebin yet? Sign Up, it unlocks many cool features!
text 7.82 KB | None | 0 0
  1. General
  2. Unique ID : 312658873568368700821784520531024193852 (0xEB37E8A074D6DB0CD9CC903B33E6A93C)
  3. Complete name : G:\Texas, 1870 (El Retorno de Sabata) 1971[BDRemux 1080p].mkv
  4. Format : Matroska
  5. Format version : Version 4
  6. File size : 16.4 GiB
  7. Duration : 1 h 45 min
  8. Overall bit rate mode : Variable
  9. Overall bit rate : 22.2 Mb/s
  10. Encoded date : UTC 2021-01-07 03:23:18
  11. Writing application : mkvmerge v51.0.0 ('I Wish') 64-bit
  12. Writing library : libebml v1.4.0 + libmatroska v1.6.2
  13.  
  14. Video
  15. ID : 1
  16. ID in the original source m : 4113 (0x1011)
  17. Format : AVC
  18. Format/Info : Advanced Video Codec
  19. Format profile : High@L4.1
  20. Format settings : CABAC / 3 Ref Frames
  21. Format settings, CABAC : Yes
  22. Format settings, Reference : 3 frames
  23. Codec ID : V_MPEG4/ISO/AVC
  24. Duration : 1 h 45 min
  25. Bit rate mode : Variable
  26. Bit rate : 16.0 Mb/s
  27. Maximum bit rate : 30.0 Mb/s
  28. Width : 1 920 pixels
  29. Height : 1 080 pixels
  30. Display aspect ratio : 16:9
  31. Frame rate mode : Constant
  32. Frame rate : 23.976 (24000/1001) FPS
  33. Standard : NTSC
  34. Color space : YUV
  35. Chroma subsampling : 4:2:0
  36. Bit depth : 8 bits
  37. Scan type : Progressive
  38. Bits/(Pixel*Frame) : 0.322
  39. Stream size : 11.8 GiB (72%)
  40. Title : Texas, 1870 (El Retorno de Sabata)(1971)[BDRemux 1080p]
  41. Writing library : x264pro - Adobe CS Exporter Plug-in
  42. Encoding settings : cabac=1 / ref=4 / deblock=1:-1:-1 / analyse=0x3:0x113 / me=umh / subme=8 / psy=1 / psy_rd=1.00:0.15 / mixed_ref=1 / me_range=16 / chroma_me=1 / trellis=1 / 8x8dct=1 / cqm=0 / deadzone=21,11 / fast_pskip=1 / chroma_qp_offset=-3 / threads=12 / lookahead_threads=2 / sliced_threads=0 / slices=4 / nr=0 / decimate=1 / interlaced=0 / bluray_compat=1 / constrained_intra=0 / bframes=3 / b_pyramid=1 / b_adapt=2 / b_bias=0 / direct=3 / weightb=1 / open_gop=0 / weightp=1 / keyint=24 / keyint_min=1 / scenecut=40 / intra_refresh=0 / rc_lookahead=24 / rc=2pass / mbtree=1 / bitrate=16000 / ratetol=1.0 / qcomp=0.60 / qpmin=0 / qpmax=69 / qpstep=4 / cplxblur=20.0 / qblur=0.5 / vbv_maxrate=30000 / vbv_bufsize=22500 / nal_hrd=vbr / ip_ratio=1.40 / aq=1:1.00
  43. Language : Spanish
  44. Default : No
  45. Forced : No
  46. Color range : Limited
  47. Color primaries : BT.709
  48. Transfer characteristics : BT.709
  49. Matrix coefficients : BT.709
  50. Original source medium : Blu-ray
  51.  
  52. Audio #1
  53. ID : 2
  54. ID in the original source m : 4354 (0x1102)
  55. Format : DTS XLL
  56. Format/Info : Digital Theater Systems
  57. Commercial name : DTS-HD Master Audio
  58. Codec ID : A_DTS
  59. Duration : 1 h 45 min
  60. Bit rate mode : Variable
  61. Bit rate : 1 560 kb/s
  62. Channel(s) : 2 channels
  63. Channel layout : L R
  64. Sampling rate : 48.0 kHz
  65. Frame rate : 93.750 FPS (512 SPF)
  66. Bit depth : 16 bits
  67. Compression mode : Lossless
  68. Stream size : 1.15 GiB (7%)
  69. Title : Castellano DTS-HD Master
  70. Language : Spanish
  71. Default : Yes
  72. Forced : No
  73. Original source medium : Blu-ray
  74.  
  75. Audio #2
  76. ID : 3
  77. ID in the original source m : 4354 (0x1102)
  78. Format : DTS
  79. Format/Info : Digital Theater Systems
  80. Codec ID : A_DTS
  81. Duration : 1 h 45 min
  82. Bit rate mode : Constant
  83. Bit rate : 1 509 kb/s
  84. Channel(s) : 2 channels
  85. Channel layout : L R
  86. Sampling rate : 48.0 kHz
  87. Frame rate : 93.750 FPS (512 SPF)
  88. Bit depth : 16 bits
  89. Compression mode : Lossy
  90. Stream size : 1.11 GiB (7%)
  91. Title : Castellano DTS
  92. Language : Spanish
  93. Default : No
  94. Forced : No
  95. Original source medium : Blu-ray
  96.  
  97. Audio #3
  98. ID : 4
  99. ID in the original source m : 4352 (0x1100)
  100. Format : DTS XLL
  101. Format/Info : Digital Theater Systems
  102. Commercial name : DTS-HD Master Audio
  103. Codec ID : A_DTS
  104. Duration : 1 h 45 min
  105. Bit rate mode : Variable
  106. Bit rate : 1 569 kb/s
  107. Channel(s) : 2 channels
  108. Channel layout : L R
  109. Sampling rate : 48.0 kHz
  110. Frame rate : 93.750 FPS (512 SPF)
  111. Bit depth : 16 bits
  112. Compression mode : Lossless
  113. Stream size : 1.16 GiB (7%)
  114. Title : Inglés DTS-H Master
  115. Language : English
  116. Default : No
  117. Forced : No
  118. Original source medium : Blu-ray
  119.  
  120. Audio #4
  121. ID : 5
  122. ID in the original source m : 4352 (0x1100)
  123. Format : DTS
  124. Format/Info : Digital Theater Systems
  125. Codec ID : A_DTS
  126. Duration : 1 h 45 min
  127. Bit rate mode : Constant
  128. Bit rate : 1 509 kb/s
  129. Channel(s) : 2 channels
  130. Channel layout : L R
  131. Sampling rate : 48.0 kHz
  132. Frame rate : 93.750 FPS (512 SPF)
  133. Bit depth : 16 bits
  134. Compression mode : Lossy
  135. Stream size : 1.11 GiB (7%)
  136. Title : Inglés DTS
  137. Language : English
  138. Default : No
  139. Forced : No
  140. Original source medium : Blu-ray
  141.  
  142. Text #1
  143. ID : 6
  144. Format : UTF-8
  145. Codec ID : S_TEXT/UTF8
  146. Codec ID/Info : UTF-8 Plain Text
  147. Duration : 1 h 42 min
  148. Bit rate : 33 b/s
  149. Count of elements : 691
  150. Stream size : 25.2 KiB (0%)
  151. Title : Castellano
  152. Language : Spanish
  153. Default : Yes
  154. Forced : No
  155.  
  156. Text #2
  157. ID : 7
  158. ID in the original source m : 4609 (0x1201)
  159. Format : PGS
  160. Muxing mode : zlib
  161. Codec ID : S_HDMV/PGS
  162. Codec ID/Info : Picture based subtitle format used on BDs/HD-DVDs
  163. Duration : 1 h 45 min
  164. Bit rate : 23.4 kb/s
  165. Count of elements : 1678
  166. Stream size : 17.7 MiB (0%)
  167. Title : Inglés
  168. Language : English
  169. Default : No
  170. Forced : No
  171. Original source medium : Blu-ray
  172.  
  173. Menu
  174. 00:00:00.000 : en:Chapter 01
  175. 00:10:42.475 : en:Chapter 02
  176. 00:17:06.608 : en:Chapter 03
  177. 00:25:08.632 : en:Chapter 04
  178. 00:39:37.750 : en:Chapter 05
  179. 00:50:18.724 : en:Chapter 06
  180. 00:59:26.229 : en:Chapter 07
  181. 01:07:07.690 : en:Chapter 08
  182. 01:14:42.186 : en:Chapter 09
  183. 01:24:56.508 : en:Chapter 10
  184. 01:32:46.978 : en:Chapter 11
  185. 01:37:58.581 : en:Chapter 12
  186.  
  187.  
Advertisement
Add Comment
Please, Sign In to add comment
Advertisement