SHARE
TWEET

Mrs.Henderson.Presents.2005.1080p.BluRay.x264-BARC0DE

a guest May 15th, 2019 11 Never
Not a member of Pastebin yet? Sign Up, it unlocks many cool features!
  1. General
  2. Unique ID                                : 201512257490308402418206005865820599667 (0x9799D95DB600BE5C80D5E581426A3573)
  3. Complete name                            : Mrs.Henderson.Presents.2005.1080p.BluRay.x264-BARC0DE.mkv
  4. Format                                   : Matroska
  5. Format version                           : Version 2
  6. File size                                : 8.21 GiB
  7. Duration                                 : 1 h 43 min
  8. Overall bit rate                         : 11.4 Mb/s
  9. Encoded date                             : UTC 2015-02-04 17:56:38
  10. Writing application                      : mkvmerge v5.8.0 ('No Sleep / Pillow') built on Sep  2 2012 15:37:04
  11. Writing library                          : libebml v1.2.3 + libmatroska v1.3.0
  12.  
  13. Video
  14. ID                                       : 1
  15. Format                                   : AVC
  16. Format/Info                              : Advanced Video Codec
  17. Format profile                           : High@L4.1
  18. Format settings                          : CABAC / 4 Ref Frames
  19. Format settings, CABAC                   : Yes
  20. Format settings, Reference frames        : 4 frames
  21. Muxing mode                              : Header stripping
  22. Codec ID                                 : V_MPEG4/ISO/AVC
  23. Duration                                 : 1 h 43 min
  24. Bit rate                                 : 10 000 kb/s
  25. Width                                    : 1 920 pixels
  26. Height                                   : 1 080 pixels
  27. Display aspect ratio                     : 16:9
  28. Frame rate mode                          : Constant
  29. Frame rate                               : 24.000 FPS
  30. Color space                              : YUV
  31. Chroma subsampling                       : 4:2:0
  32. Bit depth                                : 8 bits
  33. Scan type                                : Progressive
  34. Bits/(Pixel*Frame)                       : 0.201
  35. Stream size                              : 6.96 GiB (85%)
  36. Writing library                          : x264 core 142 r2479 dd79a61
  37. Encoding settings                        : cabac=1 / ref=3 / deblock=1:0:0 / analyse=0x3:0x113 / me=hex / subme=7 / psy=1 / psy_rd=1.00:0.00 / mixed_ref=1 / me_range=16 / chroma_me=1 / trellis=1 / 8x8dct=1 / cqm=0 / deadzone=21,11 / fast_pskip=1 / chroma_qp_offset=-2 / threads=12 / lookahead_threads=2 / sliced_threads=0 / nr=0 / decimate=1 / interlaced=0 / bluray_compat=0 / constrained_intra=0 / bframes=3 / b_pyramid=2 / b_adapt=1 / b_bias=0 / direct=1 / weightb=1 / open_gop=0 / weightp=2 / keyint=240 / keyint_min=24 / scenecut=40 / intra_refresh=0 / rc_lookahead=40 / rc=abr / mbtree=1 / bitrate=10000 / ratetol=1.0 / qcomp=0.60 / qpmin=0 / qpmax=69 / qpstep=4 / vbv_maxrate=62500 / vbv_bufsize=78125 / nal_hrd=none / filler=0 / ip_ratio=1.40 / aq=1:1.00
  38. Default                                  : Yes
  39. Forced                                   : No
  40. Color range                              : Limited
  41. Color primaries                          : BT.709
  42. Transfer characteristics                 : BT.709
  43. Matrix coefficients                      : BT.709
  44.  
  45. Audio
  46. ID                                       : 2
  47. Format                                   : DTS
  48. Format/Info                              : Digital Theater Systems
  49. Muxing mode                              : Header stripping
  50. Codec ID                                 : A_DTS
  51. Duration                                 : 1 h 43 min
  52. Bit rate mode                            : Constant
  53. Bit rate                                 : 1 509 kb/s
  54. Channel(s)                               : 6 channels
  55. Channel layout                           : C L R Ls Rs LFE
  56. Sampling rate                            : 48.0 kHz
  57. Frame rate                               : 93.750 FPS (512 SPF)
  58. Bit depth                                : 16 bits
  59. Compression mode                         : Lossy
  60. Stream size                              : 1.09 GiB (13%)
  61. Title                                    : Surround
  62. Language                                 : English
  63. Default                                  : Yes
  64. Forced                                   : No
  65.  
  66. Text
  67. ID                                       : 3
  68. Format                                   : PGS
  69. Muxing mode                              : zlib
  70. Codec ID                                 : S_HDMV/PGS
  71. Codec ID/Info                            : Picture based subtitle format used on BDs/HD-DVDs
  72. Language                                 : English
  73. Default                                  : No
  74. Forced                                   : No
  75.  
  76. Menu
  77. 00:00:00.000                             : :Chapter 1
  78. 00:06:41.458                             : :Chapter 2
  79. 00:13:55.625                             : :Chapter 3
  80. 00:18:54.917                             : :Chapter 4
  81. 00:25:20.958                             : :Chapter 5
  82. 00:34:03.417                             : :Chapter 6
  83. 00:40:56.750                             : :Chapter 7
  84. 00:46:02.125                             : :Chapter 8
  85. 00:54:49.917                             : :Chapter 9
  86. 01:01:01.042                             : :Chapter 10
  87. 01:07:08.750                             : :Chapter 11
  88. 01:13:57.875                             : :Chapter 12
  89. 01:21:26.208                             : :Chapter 13
  90. 01:27:25.375                             : :Chapter 14
  91. 01:34:24.917                             : :Chapter 15
RAW Paste Data
We use cookies for various purposes including analytics. By continuing to use Pastebin, you agree to our use of cookies as described in the Cookies Policy. OK, I Understand
Top