Guest User

[Kaitou] Zero kara Hajimeru Mahou no Sho - 03v2

a guest
May 19th, 2017
243
Never
Not a member of Pastebin yet? Sign Up, it unlocks many cool features!
  1. General
  2. Format : Matroska
  3. Format version : Version 4 / Version 2
  4. File size : 353 MiB
  5. Duration : 23mn 40s
  6. Overall bit rate : 2 082 Kbps
  7. Encoded date : UTC 2017-04-29 13:22:35
  8. Writing application : mkvmerge v9.5.0 ('Quiet Fire') 64bit
  9. Writing library : libebml v1.3.4 + libmatroska v1.4.5
  10. Attachements : 1543Humane_jenson_bold.TTF / ANTQUAB.TTF / KGShadowOfTheDay.ttf / Lato_1.ttf / palr65w.ttf
  11. DURATION : 00:23:38.900000000
  12. NUMBER_OF_FRAMES : 2790
  13. NUMBER_OF_BYTES : 419493
  14. _STATISTICS_WRITING_APP : mkvmerge v9.5.0 ('Quiet Fire') 64bit
  15. _STATISTICS_WRITING_DATE_UTC : 2017-04-29 13:22:35
  16. _STATISTICS_TAGS : BPS DURATION NUMBER_OF_FRAMES NUMBER_OF_BYTES
  17.  
  18. Video
  19. ID : 1
  20. Format : AVC
  21. Format/Info : Advanced Video Codec
  22. Format profile : High 4:4:4 Predictive@L5
  23. Format settings, CABAC : Yes
  24. Format settings, ReFrames : 16 frames
  25. Codec ID : V_MPEG4/ISO/AVC
  26. Duration : 23mn 40s
  27. Bit rate : 1 816 Kbps
  28. Width : 1 280 pixels
  29. Height : 720 pixels
  30. Display aspect ratio : 16:9
  31. Frame rate mode : Constant
  32. Frame rate : 23.976 fps
  33. Color space : YUV
  34. Chroma subsampling : 4:4:4
  35. Bit depth : 10 bits
  36. Scan type : Progressive
  37. Bits/(Pixel*Frame) : 0.082
  38. Stream size : 308 MiB (87%)
  39. Title : [Kaitou] Grimoire of Zero - 03 [720p 444 @Wakanim (WEB]
  40. Writing library : x264 core 148 r2762+56 7979737 t_mod_Custom [10-bit@all X86_64]
  41. Encoding settings : cabac=1 / ref=16 / deblock=1:-1:-1 / analyse=0x3:0x113 / me=umh / subme=10 / psy=1 / fade_compensate=0.00 / psy_rd=0.80:0.00 / mixed_ref=1 / me_range=32 / chroma_me=1 / trellis=2 / 8x8dct=1 / cqm=0 / deadzone=21,11 / fast_pskip=0 / chroma_qp_offset=1 / threads=12 / lookahead_threads=3 / sliced_threads=0 / nr=0 / decimate=0 / interlaced=0 / bluray_compat=0 / constrained_intra=0 / fgo=0 / bframes=16 / b_pyramid=2 / b_adapt=2 / b_bias=0 / direct=3 / weightb=1 / open_gop=0 / weightp=2 / keyint=240 / keyint_min=24 / scenecut=40 / intra_refresh=0 / rc_lookahead=48 / rc=crf / mbtree=1 / crf=14.0000 / qcomp=0.70 / qpmin=0:0:0 / qpmax=81:81:81 / qpstep=4 / ip_ratio=1.40 / aq=3:0.85 / aq-sensitivity=10.00 / aq-factor=1.00:1.00:1.00 / aq2=0 / aq3=0
  42. Language : Japanese
  43. Default : Yes
  44. Forced : Yes
  45. Color range : Limited
  46. Matrix coefficients : BT.709
  47. DURATION : 00:23:40.045000000
  48. NUMBER_OF_FRAMES : 34047
  49. NUMBER_OF_BYTES : 328669322
  50. _STATISTICS_WRITING_APP : mkvmerge v9.5.0 ('Quiet Fire') 64bit
  51. _STATISTICS_WRITING_DATE_UTC : 2017-04-29 13:22:35
  52. _STATISTICS_TAGS : BPS DURATION NUMBER_OF_FRAMES NUMBER_OF_BYTES
  53.  
  54. Audio
  55. ID : 2
  56. Format : E-AC-3
  57. Format/Info : Audio Coding 3
  58. Format settings, Endianness : Big
  59. Codec ID : A_EAC3
  60. Duration : 23mn 40s
  61. Bit rate mode : Constant
  62. Bit rate : 224 Kbps
  63. Channel(s) : 2 channels
  64. Channel positions : Front: L R
  65. Sampling rate : 48.0 KHz
  66. Compression mode : Lossy
  67. Stream size : 37.9 MiB (11%)
  68. Title : [Kaitou] Grimoire of Zero - 03 [@Amazon (WEB)]
  69. Language : Japanese
  70. Default : Yes
  71. Forced : Yes
  72.  
  73. Text
  74. ID : 3
  75. Format : ASS
  76. Codec ID : S_TEXT/ASS
  77. Codec ID/Info : Advanced Sub Station Alpha
  78. Compression mode : Lossless
  79. Title : [Kaitou] Grimoire of Zero - 03 (Duel)
  80. Language : English
  81. Default : Yes
  82. Forced : No
  83.  
  84. Menu
  85. 00:00:00.000 : en:Prologue
  86. 00:00:44.044 : en:"Hakkensha wa Watash" by Tapimiru
  87. 00:02:14.009 : en:Duel
  88. 00:22:02.154 : en:"Hajimari no Shirushi" by Chima
  89. 00:23:29.992 : en:Next Episode Preview: The Road to Latette
RAW Paste Data