Guest User

Untitled

a guest
Feb 17th, 2018
91
Never
Not a member of Pastebin yet? Sign Up, it unlocks many cool features!
  1. General
  2. Complete name : Trophy.2017.SWESUB.1080p.WEB-DL.x264-FiLMANTA.mp4
  3. Format : MPEG-4
  4. Format profile : Base Media / Version 2
  5. Codec ID : mp42 (isom/iso2/avc1/mp41)
  6. File size : 2.07 GiB
  7. Duration : 1 h 49 min
  8. Overall bit rate mode : Variable
  9. Overall bit rate : 2 699 kb/s
  10. Movie name : SweSubs.com / Filmer med svensk undertext!
  11. Encoded date : UTC 2017-12-06 06:33:04
  12. Tagged date : UTC 2017-12-06 06:33:04
  13. Writing application : HandBrake 1.0.7 2017040900
  14.  
  15. Video
  16. ID : 1
  17. Format : AVC
  18. Format/Info : Advanced Video Codec
  19. Format profile : Main@L4
  20. Format settings, CABAC : Yes
  21. Format settings, RefFrames : 4 frames
  22. Codec ID : avc1
  23. Codec ID/Info : Advanced Video Coding
  24. Duration : 1 h 49 min
  25. Bit rate : 2 500 kb/s
  26. Width : 1 920 pixels
  27. Height : 1 080 pixels
  28. Display aspect ratio : 16:9
  29. Frame rate mode : Variable
  30. Frame rate : 23.976 (24000/1001) FPS
  31. Minimum frame rate : 23.974 FPS
  32. Maximum frame rate : 23.981 FPS
  33. Color space : YUV
  34. Chroma subsampling : 4:2:0
  35. Bit depth : 8 bits
  36. Scan type : Progressive
  37. Bits/(Pixel*Frame) : 0.050
  38. Stream size : 1.92 GiB (93%)
  39. Writing library : x264 core 148 r2708 86b7198
  40. Encoding settings : cabac=1 / ref=4 / deblock=1:-1:-1 / analyse=0x1:0x111 / me=umh / subme=8 / psy=1 / psy_rd=1.00:0.15 / mixed_ref=1 / me_range=16 / chroma_me=1 / trellis=1 / 8x8dct=0 / cqm=0 / deadzone=21,11 / fast_pskip=1 / chroma_qp_offset=-3 / threads=34 / lookahead_threads=5 / sliced_threads=0 / nr=0 / decimate=1 / interlaced=0 / bluray_compat=0 / constrained_intra=0 / bframes=3 / b_pyramid=2 / b_adapt=2 / b_bias=0 / direct=3 / weightb=1 / open_gop=0 / weightp=2 / keyint=240 / keyint_min=24 / scenecut=40 / intra_refresh=0 / rc_lookahead=50 / rc=2pass / mbtree=1 / bitrate=2500 / ratetol=1.0 / qcomp=0.60 / qpmin=0 / qpmax=69 / qpstep=4 / cplxblur=20.0 / qblur=0.5 / vbv_maxrate=20000 / vbv_bufsize=25000 / nal_hrd=none / filler=0 / ip_ratio=1.40 / aq=1:1.00
  41. Encoded date : UTC 2017-12-06 06:33:04
  42. Tagged date : UTC 2017-12-06 06:33:04
  43. Color range : Limited
  44. Color primaries : BT.709
  45. Transfer characteristics : BT.709
  46. Matrix coefficients : BT.709
  47.  
  48. Audio
  49. ID : 2
  50. Format : AAC
  51. Format/Info : Advanced Audio Codec
  52. Format profile : LC
  53. Codec ID : 40
  54. Duration : 1 h 49 min
  55. Bit rate mode : Variable
  56. Bit rate : 192 kb/s
  57. Channel(s) : 2 channels
  58. Channel positions : Front: L R
  59. Sampling rate : 48.0 kHz
  60. Frame rate : 46.875 FPS (1024 SPF)
  61. Compression mode : Lossy
  62. Stream size : 151 MiB (7%)
  63. Title : Stereo / Stereo
  64. Language : English
  65. Default : Yes
  66. Alternate group : 1
  67. Encoded date : UTC 2017-12-06 06:33:04
  68. Tagged date : UTC 2017-12-06 06:33:04
RAW Paste Data