SHARE
TWEET

Untitled

a guest Aug 18th, 2019 68 Never
Not a member of Pastebin yet? Sign Up, it unlocks many cool features!
  1. QUICK SUMMARY:
  2.  
  3. Disc Title: The Nut Job 2014 1080p Bluray AVC DTS-HD MA 5.1-Rmp4L
  4. Disc Size: 25,515,025,947 bytes
  5. Protection: AACS
  6. Playlist: 00800.MPLS
  7. Size: 23,487,903,744 bytes
  8. Length: 1:25:54.566
  9. Total Bitrate: 36.45 Mbps
  10. Video: MPEG-4 AVC Video / 31983 kbps / 1080p / 23.976 fps / 16:9 / High Profile 4.1
  11. Audio: English / DTS-HD Master Audio / 5.1 / 48 kHz /  2525 kbps / 24-bit (DTS Core: 5.1 / 48 kHz /  1509 kbps / 24-bit)
  12. Subtitle: English / 44.785 kbps
  13. Subtitle: Spanish / 36.153 kbps
  14. Subtitle: French / 35.859 kbps
  15.  
  16. General
  17. Unique ID                                : 260665495354040927224567455220269300118 (0xC41A5929FF79F6B30B9888BD82F7B996)
  18. Complete name                            : L:\The Nut Job 2014 1080p Bluray Remux AVC DTS-HD MA 5.1-Rmp4L.mkv
  19. Format                                   : Matroska
  20. Format version                           : Version 4
  21. File size                                : 20.3 GiB
  22. Duration                                 : 1 h 25 min
  23. Overall bit rate mode                    : Variable
  24. Overall bit rate                         : 33.9 Mb/s
  25. Encoded date                             : UTC 2019-08-18 16:34:17
  26. Writing application                      : mkvmerge v36.0.0 ('Is That Jazz?') 64-bit
  27. Writing library                          : libebml v1.3.9 + libmatroska v1.5.2
  28.  
  29. Video
  30. ID                                       : 1
  31. Format                                   : AVC
  32. Format/Info                              : Advanced Video Codec
  33. Format profile                           : High@L4.1
  34. Format settings                          : CABAC / 4 Ref Frames
  35. Format settings, CABAC                   : Yes
  36. Format settings, Reference frames        : 4 frames
  37. Codec ID                                 : V_MPEG4/ISO/AVC
  38. Duration                                 : 1 h 25 min
  39. Bit rate mode                            : Variable
  40. Bit rate                                 : 31.2 Mb/s
  41. Maximum bit rate                         : 35.0 Mb/s
  42. Width                                    : 1 920 pixels
  43. Height                                   : 1 080 pixels
  44. Display aspect ratio                     : 16:9
  45. Frame rate mode                          : Constant
  46. Frame rate                               : 23.976 (24000/1001) FPS
  47. Color space                              : YUV
  48. Chroma subsampling                       : 4:2:0
  49. Bit depth                                : 8 bits
  50. Scan type                                : Progressive
  51. Bits/(Pixel*Frame)                       : 0.628
  52. Stream size                              : 18.7 GiB (92%)
  53. Title                                    : MPEG-4 AVC Video / 31983 kbps / 1080p / 23.976 fps / 16:9 / High Profile 4.1
  54. Language                                 : English
  55. Default                                  : Yes
  56. Forced                                   : No
  57.  
  58. Audio
  59. ID                                       : 2
  60. Format                                   : DTS XLL
  61. Format/Info                              : Digital Theater Systems
  62. Commercial name                          : DTS-HD Master Audio
  63. Codec ID                                 : A_DTS
  64. Duration                                 : 1 h 25 min
  65. Bit rate mode                            : Variable
  66. Bit rate                                 : 2 525 kb/s
  67. Channel(s)                               : 6 channels
  68. Channel layout                           : C L R Ls Rs LFE
  69. Sampling rate                            : 48.0 kHz
  70. Frame rate                               : 93.750 FPS (512 SPF)
  71. Bit depth                                : 24 bits
  72. Compression mode                         : Lossless
  73. Stream size                              : 1.52 GiB (7%)
  74. Title                                    : DTS-HD Master Audio / 2525 kbps / 5.1 / 48 kHz / 2525 kbps / 24-bit
  75. Language                                 : English
  76. Default                                  : Yes
  77. Forced                                   : No
  78.  
  79. Text #1
  80. ID                                       : 3
  81. Format                                   : PGS
  82. Codec ID                                 : S_HDMV/PGS
  83. Codec ID/Info                            : Picture based subtitle format used on BDs/HD-DVDs
  84. Duration                                 : 1 h 24 min
  85. Bit rate                                 : 45.5 kb/s
  86. Count of elements                        : 2848
  87. Stream size                              : 27.5 MiB (0%)
  88. Language                                 : English
  89. Default                                  : No
  90. Forced                                   : No
  91.  
  92. Text #2
  93. ID                                       : 4
  94. Format                                   : PGS
  95. Codec ID                                 : S_HDMV/PGS
  96. Codec ID/Info                            : Picture based subtitle format used on BDs/HD-DVDs
  97. Duration                                 : 1 h 22 min
  98. Bit rate                                 : 37.8 kb/s
  99. Count of elements                        : 2260
  100. Stream size                              : 22.2 MiB (0%)
  101. Language                                 : Spanish
  102. Default                                  : No
  103. Forced                                   : No
  104.  
  105. Text #3
  106. ID                                       : 5
  107. Format                                   : PGS
  108. Codec ID                                 : S_HDMV/PGS
  109. Codec ID/Info                            : Picture based subtitle format used on BDs/HD-DVDs
  110. Duration                                 : 1 h 22 min
  111. Bit rate                                 : 37.5 kb/s
  112. Count of elements                        : 2270
  113. Stream size                              : 22.0 MiB (0%)
  114. Language                                 : French
  115. Default                                  : No
  116. Forced                                   : No
RAW Paste Data
We use cookies for various purposes including analytics. By continuing to use Pastebin, you agree to our use of cookies as described in the Cookies Policy. OK, I Understand
 
Top