SHARE
TWEET

Black Summer: Season 1 1080p WEB-DL

dirtyharrys Apr 27th, 2019 150 Never
Not a member of Pastebin yet? Sign Up, it unlocks many cool features!
  1. General
  2. Unique ID                   : 169670727915323656166228845388813092110 (0x7FA564C0346383A520DF9CAF4C88C50E)
  3. Complete name               : E:\Black.Summer.S01.1080p.WEB.x264\BSS01E01.mkv
  4. Format                      : Matroska
  5. Format version              : Version 4
  6. File size                   : 2.15 GiB
  7. Duration                    : 44 min 41 s
  8. Overall bit rate mode       : Variable
  9. Overall bit rate            : 6 898 kb/s
  10. Movie name                  : Black Summer S01E01 / Black Summer: Season One
  11. Description                 : Episode 01: "Human Flow"
  12. Encoded date                : UTC 2019-04-21 06:38:56
  13. Writing application         : mkvmerge v30.1.0 ('Forever And More') 32-bit
  14. Writing library             : libebml v1.3.6 + libmatroska v1.4.9
  15. Copyright                   : Movies HDs 2019
  16. ARTIST                      : HarshLearner
  17.  
  18. Video
  19. ID                          : 1
  20. Format                      : AVC
  21. Format/Info                 : Advanced Video Codec
  22. Format profile              : Main@L4
  23. Format settings             : CABAC / 3 Ref Frames
  24. Format settings, CABAC      : Yes
  25. Format settings, ReFrames   : 3 frames
  26. Codec ID                    : V_MPEG4/ISO/AVC
  27. Duration                    : 44 min 41 s
  28. Bit rate mode               : Variable
  29. Bit rate                    : 5 488 kb/s
  30. Nominal bit rate            : 5 800 kb/s
  31. Maximum bit rate            : 8 700 kb/s
  32. Width                       : 1 920 pixels
  33. Height                      : 1 080 pixels
  34. Display aspect ratio        : 16:9
  35. Frame rate mode             : Constant
  36. Frame rate                  : 23.976 (24000/1001) FPS
  37. Color space                 : YUV
  38. Chroma subsampling          : 4:2:0
  39. Bit depth                   : 8 bits
  40. Scan type                   : Progressive
  41. Bits/(Pixel*Frame)          : 0.110
  42. Stream size                 : 1.71 GiB (80%)
  43. Title                       : S01E01: Human Flow
  44. Writing library             : x264 core 148 r2715 7e75228
  45. Default                     : Yes
  46. Forced                      : No
  47.  
  48. Audio #1
  49. ID                          : 2
  50. Format                      : E-AC-3 JOC
  51. Format/Info                 : Enhanced AC-3 with Joint Object Coding
  52. Commercial name             : Dolby Digital Plus with Dolby Atmos
  53. Codec ID                    : A_EAC3
  54. Duration                    : 44 min 41 s
  55. Bit rate mode               : Constant
  56. Bit rate                    : 768 kb/s
  57. Channel(s)                  : 6 channels
  58. Channel layout              : L R C LFE Ls Rs
  59. Sampling rate               : 48.0 kHz
  60. Frame rate                  : 31.250 FPS (1536 SPF)
  61. Compression mode            : Lossy
  62. Stream size                 : 245 MiB (11%)
  63. Language                    : English
  64. Service kind                : Complete Main
  65. Default                     : No
  66. Forced                      : No
  67. Complexity index            : 16
  68. Number of dynamic objects   : 15
  69. Bed channel count           : 1 channel
  70. Bed channel configuration   : LFE
  71.  
  72. Audio #2
  73. ID                          : 3
  74. Format                      : E-AC-3
  75. Format/Info                 : Enhanced AC-3
  76. Commercial name             : Dolby Digital Plus
  77. Codec ID                    : A_EAC3
  78. Duration                    : 44 min 41 s
  79. Bit rate mode               : Constant
  80. Bit rate                    : 640 kb/s
  81. Channel(s)                  : 6 channels
  82. Channel layout              : L R C LFE Ls Rs
  83. Sampling rate               : 48.0 kHz
  84. Frame rate                  : 31.250 FPS (1536 SPF)
  85. Compression mode            : Lossy
  86. Stream size                 : 205 MiB (9%)
  87. Language                    : Spanish
  88. Service kind                : Complete Main
  89. Default                     : Yes
  90. Forced                      : Yes
  91.  
  92. Text #1
  93. ID                          : 4
  94. Format                      : UTF-8
  95. Codec ID                    : S_TEXT/UTF8
  96. Codec ID/Info               : UTF-8 Plain Text
  97. Duration                    : 40 min 41 s
  98. Bit rate                    : 40 b/s
  99. Count of elements           : 506
  100. Stream size                 : 12.0 KiB (0%)
  101. Language                    : English
  102. Default                     : No
  103. Forced                      : No
  104.  
  105. Text #2
  106. ID                          : 5
  107. Format                      : UTF-8
  108. Codec ID                    : S_TEXT/UTF8
  109. Codec ID/Info               : UTF-8 Plain Text
  110. Duration                    : 43 min 37 s
  111. Bit rate                    : 28 b/s
  112. Count of elements           : 346
  113. Stream size                 : 9.24 KiB (0%)
  114. Language                    : Spanish
  115. Default                     : Yes
  116. Forced                      : Yes
  117.  
  118. Text #3
  119. ID                          : 6
  120. Format                      : UTF-8
  121. Codec ID                    : S_TEXT/UTF8
  122. Codec ID/Info               : UTF-8 Plain Text
  123. Duration                    : 22 min 57 s
  124. Bit rate                    : 0 b/s
  125. Count of elements           : 4
  126. Stream size                 : 141 Bytes (0%)
  127. Language                    : Spanish
  128. Default                     : No
  129. Forced                      : No
RAW Paste Data
We use cookies for various purposes including analytics. By continuing to use Pastebin, you agree to our use of cookies as described in the Cookies Policy. OK, I Understand
 
Top