Henry_Kr

DBZ-BPG-1990

Dec 1st, 2019
180
Never
Not a member of Pastebin yet? Sign Up, it unlocks many cool features!
  1. Video
  2. ID : 1
  3. Format : AVC
  4. Format/Info : Advanced Video Codec
  5. Format profile : High@L4
  6. Format settings : CABAC / 4 Ref Frames
  7. Format settings, CABAC : Yes
  8. Format settings, Reference : 4 frames
  9. Codec ID : V_MPEG4/ISO/AVC
  10. Duration : 47 min 52 s
  11. Bit rate : 5 661 kb/s
  12. Width : 1 440 pixels
  13. Height : 1 080 pixels
  14. Display aspect ratio : 4:3
  15. Frame rate mode : Constant
  16. Frame rate : 23.976 (24000/1001) FPS
  17. Color space : YUV
  18. Chroma subsampling : 4:2:0
  19. Bit depth : 8 bits
  20. Scan type : Progressive
  21. Bits/(Pixel*Frame) : 0.152
  22. Stream size : 1.89 GiB (52%)
  23. Title : Project by Troidex
  24. Writing library : x264 core 157 r2969 d4099dd
  25. Default : Yes
  26. Forced : No
  27.  
  28. Audio #1
  29. ID : 2
  30. Format : PCM
  31. Format settings : Little / Signed
  32. Codec ID : A_PCM/INT/LIT
  33. Duration : 47 min 52 s
  34. Bit rate mode : Constant
  35. Bit rate : 4 608 kb/s
  36. Channel(s) : 2 channels
  37. Sampling rate : 96.0 kHz
  38. Frame rate : 32.000 FPS (3000 SPF)
  39. Bit depth : 24 bits
  40. Stream size : 1.54 GiB (42%)
  41. Title : Japonês [Troidex]
  42. Language : Japanese
  43. Default : No
  44. Forced : No
  45.  
  46. Audio #2
  47. ID : 3
  48. Format : AC-3
  49. Format/Info : Audio Coding 3
  50. Commercial name : Dolby Digital
  51. Codec ID : A_AC3
  52. Duration : 47 min 52 s
  53. Bit rate mode : Constant
  54. Bit rate : 192 kb/s
  55. Channel(s) : 2 channels
  56. Channel layout : L R
  57. Sampling rate : 48.0 kHz
  58. Frame rate : 31.250 FPS (1536 SPF)
  59. Compression mode : Lossy
  60. Stream size : 65.7 MiB (2%)
  61. Title : PT-BR (Álamo) [Troidex_Taja]
  62. Language : Portuguese
  63. Service kind : Complete Main
  64. Default : Yes
  65. Forced : No
  66.  
  67. Audio #3
  68. ID : 4
  69. Format : AC-3
  70. Format/Info : Audio Coding 3
  71. Commercial name : Dolby Digital
  72. Codec ID : A_AC3
  73. Duration : 47 min 52 s
  74. Bit rate mode : Constant
  75. Bit rate : 448 kb/s
  76. Channel(s) : 2 channels
  77. Channel layout : L R
  78. Sampling rate : 48.0 kHz
  79. Frame rate : 31.250 FPS (1536 SPF)
  80. Compression mode : Lossy
  81. Stream size : 153 MiB (4%)
  82. Title : PT-BR (Parisi Video) [Troidex_danfgtn]
  83. Language : Portuguese
  84. Service kind : Complete Main
  85. Default : No
  86. Forced : No
  87.  
  88. Text #1
  89. ID : 5
  90. Format : ASS
  91. Codec ID : S_TEXT/ASS
  92. Codec ID/Info : Advanced Sub Station Alpha
  93. Duration : 44 min 6 s
  94. Bit rate : 55 b/s
  95. Count of elements : 360
  96. Compression mode : Lossless
  97. Stream size : 18.0 KiB (0%)
  98. Title : PT-BR [Troidex_Taja]
  99. Language : Portuguese
  100. Default : No
  101. Forced : No
  102.  
  103. Text #2
  104. ID : 6
  105. Format : ASS
  106. Codec ID : S_TEXT/ASS
  107. Codec ID/Info : Advanced Sub Station Alpha
  108. Duration : 47 min 42 s
  109. Bit rate : 637 b/s
  110. Count of elements : 1406
  111. Compression mode : Lossless
  112. Stream size : 223 KiB (0%)
  113. Title : PT-BR (Types e Karaokês) [Troidex_Taja_Remaxterizator]
  114. Language : Portuguese
  115. Default : Yes
  116. Forced : No
RAW Paste Data