Guest User

Untitled

a guest
Jan 12th, 2020
37
Never
Not a member of Pastebin yet? Sign Up, it unlocks many cool features!
  1. General
  2. Unique ID : 234211601571487646855552173733493063825 (0xB03383807690CF988B8E431E9CE3C091)
  3. Complete name : D:TorrentsFILMЗаборонений.2019.1080p.WEB-DL.mkv
  4. Format : Matroska
  5. Format version : Version 4
  6. File size : 3.07 GiB
  7. Duration : 1 h 44 min
  8. Overall bit rate : 4 187 kb/s
  9. Movie name : Заборонений 2019 rip by sergiyko
  10. Encoded date : UTC 2019-12-02 19:09:25
  11. Writing application : mkvmerge v40.0.0 ('Old Town Road + Pony') 64-bit
  12. Writing library : libebml v1.3.9 + libmatroska v1.5.2
  13. Cover : Yes
  14. Attachments : cover.jpg
  15.  
  16. Video
  17. ID : 1
  18. Format : AVC
  19. Format/Info : Advanced Video Codec
  20. Format profile : High@L4
  21. Format settings : CABAC / 3 Ref Frames
  22. Format settings, CABAC : Yes
  23. Format settings, Reference : 3 frames
  24. Format settings, GOP : M=1, N=72
  25. Codec ID : V_MPEG4/ISO/AVC
  26. Duration : 1 h 44 min
  27. Bit rate : 3 992 kb/s
  28. Width : 1 920 pixels
  29. Height : 808 pixels
  30. Display aspect ratio : 2.40:1
  31. Frame rate mode : Constant
  32. Frame rate : 24.000 FPS
  33. Color space : YUV
  34. Chroma subsampling : 4:2:0
  35. Bit depth : 8 bits
  36. Scan type : Progressive
  37. Bits/(Pixel*Frame) : 0.107
  38. Stream size : 2.93 GiB (95%)
  39. Language : Ukrainian
  40. Default : Yes
  41. Forced : No
  42.  
  43. Audio
  44. ID : 2
  45. Format : AAC LC
  46. Format/Info : Advanced Audio Codec Low Complexity
  47. Codec ID : A_AAC-2
  48. Duration : 1 h 44 min
  49. Bit rate : 192 kb/s
  50. Channel(s) : 2 channels
  51. Channel layout : L R
  52. Sampling rate : 48.0 kHz
  53. Frame rate : 46.875 FPS (1024 SPF)
  54. Compression mode : Lossy
  55. Stream size : 144 MiB (5%)
  56. Language : Ukrainian
  57. Default : Yes
  58. Forced : No
RAW Paste Data