daily pastebin goal
66%
SHARE
TWEET

Dementia 13 WEB-RIP 720p

dirtyharrys Dec 12th, 2018 66 Never
Not a member of Pastebin yet? Sign Up, it unlocks many cool features!
  1. General
  2. Unique ID                   : 201935098449677577838516897903286736601 (0x97EB4908F1483F7D903E72F86B84D6D9)
  3. Complete name               : C:\V0VCRGVtZW50aWExMw.mkv
  4. Format                      : Matroska
  5. Format version              : Version 4 / Version 2
  6. File size                   : 1.82 GiB
  7. Duration                    : 1 h 23 min
  8. Overall bit rate mode       : Variable
  9. Overall bit rate            : 3 119 kb/s
  10. Movie name                  : Dementia 13 WEB-RIP / Dementia 13 WEB-RIP
  11. Encoded date                : UTC 2018-12-12 04:37:28
  12. Writing application         : mkvmerge v12.0.0 ('Trust / Lust') 32bit
  13. Writing library             : libebml v1.3.4 + libmatroska v1.4.5
  14. Copyright                   : Movies HDs 2018
  15. ARTIST                      : HarshLearner
  16.  
  17. Video
  18. ID                          : 1
  19. Format                      : AVC
  20. Format/Info                 : Advanced Video Codec
  21. Format profile              : Main@L3.1
  22. Format settings             : CABAC / 3 Ref Frames
  23. Format settings, CABAC      : Yes
  24. Format settings, ReFrames   : 3 frames
  25. Codec ID                    : V_MPEG4/ISO/AVC
  26. Duration                    : 1 h 23 min
  27. Bit rate mode               : Variable
  28. Bit rate                    : 2 740 kb/s
  29. Maximum bit rate            : 4 110 kb/s
  30. Width                       : 1 280 pixels
  31. Height                      : 720 pixels
  32. Display aspect ratio        : 16:9
  33. Frame rate mode             : Constant
  34. Frame rate                  : 23.976 (24000/1001) FPS
  35. Color space                 : YUV
  36. Chroma subsampling          : 4:2:0
  37. Bit depth                   : 8 bits
  38. Scan type                   : Progressive
  39. Bits/(Pixel*Frame)          : 0.124
  40. Stream size                 : 1.60 GiB (88%)
  41. Title                       : Dementia 13
  42. Writing library             : x264 core 148 r2715 7e75228
  43. Default                     : Yes
  44. Forced                      : No
  45.  
  46. Audio
  47. ID                          : 2
  48. Format                      : AC-3
  49. Format/Info                 : Audio Coding 3
  50. Commercial name             : Dolby Digital
  51. Codec ID                    : A_AC3
  52. Duration                    : 1 h 23 min
  53. Bit rate mode               : Constant
  54. Bit rate                    : 384 kb/s
  55. Channel(s)                  : 6 channels
  56. Channel positions           : Front: L C R, Side: L R, LFE
  57. Sampling rate               : 48.0 kHz
  58. Frame rate                  : 31.250 FPS (1536 SPF)
  59. Bit depth                   : 16 bits
  60. Compression mode            : Lossy
  61. Stream size                 : 230 MiB (12%)
  62. Language                    : English
  63. Service kind                : Complete Main
  64. Default                     : Yes
  65. Forced                      : No
  66.  
  67. Text #1
  68. ID                          : 3
  69. Format                      : UTF-8
  70. Codec ID                    : S_TEXT/UTF8
  71. Codec ID/Info               : UTF-8 Plain Text
  72. Duration                    : 1 h 20 min
  73. Bit rate                    : 42 b/s
  74. Count of elements           : 921
  75. Stream size                 : 24.7 KiB (0%)
  76. Title                       : SDH
  77. Language                    : English
  78. Default                     : No
  79. Forced                      : No
  80.  
  81. Text #2
  82. ID                          : 4
  83. Format                      : UTF-8
  84. Codec ID                    : S_TEXT/UTF8
  85. Codec ID/Info               : UTF-8 Plain Text
  86. Duration                    : 1 h 19 min
  87. Bit rate                    : 36 b/s
  88. Count of elements           : 709
  89. Stream size                 : 21.1 KiB (0%)
  90. Language                    : Spanish
  91. Default                     : Yes
  92. Forced                      : Yes
RAW Paste Data
We use cookies for various purposes including analytics. By continuing to use Pastebin, you agree to our use of cookies as described in the Cookies Policy. OK, I Understand
 
Top