Henry_Kr

OP-S01

Oct 12th, 2020
57
Never
Not a member of Pastebin yet? Sign Up, it unlocks many cool features!
  1. Video
  2. ID : 1
  3. Format : AVC
  4. Format/Info : Advanced Video Codec
  5. Format profile : High@L4.1
  6. Format settings : CABAC / 5 Ref Frames
  7. Format settings, CABAC : Yes
  8. Format settings, Reference : 5 frames
  9. Muxing mode : Header stripping
  10. Codec ID : V_MPEG4/ISO/AVC
  11. Duration : 24 min 38 s
  12. Bit rate : 3 198 kb/s
  13. Width : 1 440 pixels
  14. Height : 1 080 pixels
  15. Display aspect ratio : 4:3
  16. Frame rate mode : Constant
  17. Frame rate : 23.976 (24000/1001) FPS
  18. Color space : YUV
  19. Chroma subsampling : 4:2:0
  20. Bit depth : 8 bits
  21. Scan type : Progressive
  22. Bits/(Pixel*Frame) : 0.086
  23. Stream size : 564 MiB (82%)
  24. Title : One.Piece.S01E01.Eu.Sou.Luffy.o.Homem.Que.Será.o.Rei.Dos.Piratas.1080p.WEB.[CartoonNOW]
  25. Writing library : x264 core 148 r2638 7599210
  26. Language : Japanese
  27. Default : Yes
  28. Forced : No
  29.  
  30. Audio #1
  31. ID : 2
  32. Format : AC-3
  33. Format/Info : Audio Coding 3
  34. Commercial name : Dolby Digital
  35. Muxing mode : Header stripping
  36. Codec ID : A_AC3
  37. Duration : 24 min 38 s
  38. Bit rate mode : Constant
  39. Bit rate : 192 kb/s
  40. Channel(s) : 2 channels
  41. Channel layout : L R
  42. Sampling rate : 48.0 kHz
  43. Frame rate : 31.250 FPS (1536 SPF)
  44. Compression mode : Lossy
  45. Stream size : 33.8 MiB (5%)
  46. Title : AC3 2.0
  47. Language : Portuguese
  48. Service kind : Complete Main
  49. Default : Yes
  50. Forced : No
  51.  
  52. Audio #2
  53. ID : 3
  54. Format : AC-3
  55. Format/Info : Audio Coding 3
  56. Commercial name : Dolby Digital
  57. Muxing mode : Header stripping
  58. Codec ID : A_AC3
  59. Duration : 24 min 38 s
  60. Bit rate mode : Constant
  61. Bit rate : 448 kb/s
  62. Channel(s) : 2 channels
  63. Channel layout : L R
  64. Sampling rate : 48.0 kHz
  65. Frame rate : 31.250 FPS (1536 SPF)
  66. Compression mode : Lossy
  67. Delay relative to video : 1 s 0 ms
  68. Stream size : 79.0 MiB (11%)
  69. Title : AC3 2.0
  70. Language : Japanese
  71. Service kind : Complete Main
  72. Default : No
  73. Forced : No
  74.  
  75. Text
  76. ID : 4
  77. Format : ASS
  78. Codec ID : S_TEXT/ASS
  79. Codec ID/Info : Advanced Sub Station Alpha
  80. Compression mode : Lossless
  81. Title : Completa
  82. Language : Portuguese
  83. Default : No
  84. Forced : No
RAW Paste Data