SHARE
TWEET

Untitled

enansaif Jul 22nd, 2019 57 Never
Not a member of Pastebin yet? Sign Up, it unlocks many cool features!
  1. General
  2. Unique ID                                : 255325472551528609725093182313595842428 (0xC015E5B6729CB0792524350D1E0EAF7C)
  3. Complete name                            : G:\Melvin and Howard 1980 1080p BluRay AC3 1.1 x265 - WolF.mkv
  4. Format                                   : Matroska
  5. Format version                           : Version 4
  6. File size                                : 1.60 GiB
  7. Duration                                 : 1 h 47 min
  8. Overall bit rate                         : 2 129 kb/s
  9. Movie name                               : Melvin and Howard 1980 1080p Blu-ray Remux AVC DTS-HD MA 2.0 - KRaLiMaRKo
  10. Encoded date                             : UTC 2019-07-22 14:43:04
  11. Writing application                      : mkvmerge v34.0.0 ('Sight and Seen') 64-bit
  12. Writing library                          : libebml v1.3.7 + libmatroska v1.5.0
  13.  
  14. Video
  15. ID                                       : 2
  16. Format                                   : HEVC
  17. Format/Info                              : High Efficiency Video Coding
  18. Format profile                           : Main@L4@Main
  19. Codec ID                                 : V_MPEGH/ISO/HEVC
  20. Duration                                 : 1 h 34 min
  21. Bit rate                                 : 2 201 kb/s
  22. Width                                    : 1 920 pixels
  23. Height                                   : 1 040 pixels
  24. Display aspect ratio                     : 1.85:1
  25. Frame rate mode                          : Constant
  26. Frame rate                               : 23.976 (24000/1001) FPS
  27. Color space                              : YUV
  28. Chroma subsampling                       : 4:2:0
  29. Bit depth                                : 8 bits
  30. Bits/(Pixel*Frame)                       : 0.046
  31. Stream size                              : 1.46 GiB (91%)
  32. Writing library                          : x265 2.9:[Windows][GCC 8.2.0][64 bit] 8bit+10bit+12bit
  33. Encoding settings                        : cpuid=1111039 / frame-threads=2 / numa-pools=4 / wpp / no-pmode / no-pme / no-psnr / no-ssim / log-level=2 / input-csp=1 / input-res=1920x1040 / interlace=0 / total-frames=0 / level-idc=0 / high-tier=1 / uhd-bd=0 / ref=4 / no-allow-non-conformance / no-repeat-headers / annexb / no-aud / no-hrd / info / hash=0 / no-temporal-layers / open-gop / min-keyint=24 / keyint=240 / gop-lookahead=0 / bframes=4 / b-adapt=2 / b-pyramid / bframe-bias=0 / rc-lookahead=25 / lookahead-slices=4 / scenecut=40 / radl=0 / no-intra-refresh / ctu=64 / min-cu-size=8 / no-rect / no-amp / max-tu-size=32 / tu-inter-depth=1 / tu-intra-depth=1 / limit-tu=0 / rdoq-level=2 / dynamic-rd=0.00 / no-ssim-rd / signhide / no-tskip / nr-intra=0 / nr-inter=0 / no-constrained-intra / no-strong-intra-smoothing / max-merge=3 / limit-refs=3 / limit-modes / me=3 / subme=3 / merange=57 / temporal-mvp / weightp / no-weightb / no-analyze-src-pics / deblock=0:0 / sao / no-sao-non-deblock / rd=4 / no-early-skip / rskip / no-fast-intra / no-tskip-fast / no-cu-lossless / no-b-intra / no-splitrd-skip / rdpenalty=0 / psy-rd=2.00 / psy-rdoq=1.00 / no-rd-refine / no-lossless / cbqpoffs=0 / crqpoffs=0 / rc=abr / bitrate=2200 / qcomp=0.60 / qpstep=4 / stats-write=0 / stats-read=2 / cplxblur=20.0 / qblur=0.5 / ipratio=1.40 / pbratio=1.30 / aq-mode=1 / aq-strength=1.00 / cutree / zone-count=0 / no-strict-cbr / qg-size=32 / no-rc-grain / qpmax=69 / qpmin=0 / no-const-vbv / sar=1 / overscan=0 / videoformat=5 / range=0 / colorprim=1 / transfer=1 / colormatrix=1 / chromaloc=0 / display-window=0 / max-cll=0,0 / min-luma=0 / max-luma=255 / log2-max-poc-lsb=8 / vui-timing-info / vui-hrd-info / slices=1 / no-opt-qp-pps / no-opt-ref-list-length-pps / no-multi-pass-opt-rps / scenecut-bias=0.05 / no-opt-cu-delta-qp / no-aq-motion / no-hdr / no-hdr-opt / no-dhdr10-opt / no-idr-recovery-sei / analysis-reuse-level=5 / scale-factor=0 / refine-intra=0 / refine-inter=0 / refine-mv=0 / no-limit-sao / ctu-info=0 / no-lowpass-dct / refine-mv-type=0 / copy-pic=1 / max-ausize-factor=1.0 / no-dynamic-refine / no-single-sei
  34. Default                                  : Yes
  35. Forced                                   : No
  36. Color range                              : Limited
  37. Color primaries                          : BT.709
  38. Transfer characteristics                 : BT.709
  39. Matrix coefficients                      : BT.709
  40.  
  41. Audio
  42. ID                                       : 1
  43. Format                                   : AC-3
  44. Format/Info                              : Audio Coding 3
  45. Commercial name                          : Dolby Digital
  46. Codec ID                                 : A_AC3
  47. Duration                                 : 1 h 47 min
  48. Bit rate mode                            : Constant
  49. Bit rate                                 : 192 kb/s
  50. Channel(s)                               : 2 channels
  51. Channel layout                           : L R
  52. Sampling rate                            : 48.0 kHz
  53. Frame rate                               : 31.250 FPS (1536 SPF)
  54. Bit depth                                : 16 bits
  55. Compression mode                         : Lossy
  56. Stream size                              : 148 MiB (9%)
  57. Service kind                             : Complete Main
  58. Default                                  : Yes
  59. Forced                                   : No
  60.  
  61. Text
  62. ID                                       : 3
  63. Format                                   : UTF-8
  64. Codec ID                                 : S_TEXT/UTF8
  65. Codec ID/Info                            : UTF-8 Plain Text
  66. Duration                                 : 1 h 30 min
  67. Bit rate                                 : 59 b/s
  68. Count of elements                        : 1093
  69. Stream size                              : 39.3 KiB (0%)
  70. Language                                 : English
  71. Default                                  : Yes
  72. Forced                                   : No
  73.  
  74. Menu
  75. 00:00:00.000                             : :Chapter 1
  76. 00:03:58.905                             : :Chapter 2
  77. 00:08:06.611                             : :Chapter 3
  78. 00:13:33.062                             : :Chapter 4
  79. 00:15:33.975                             : :Chapter 5
  80. 00:17:20.873                             : :Chapter 6
  81. 00:19:29.335                             : :Chapter 7
  82. 00:23:41.128                             : :Chapter 8
  83. 00:26:10.152                             : :Chapter 9
  84. 00:30:16.565                             : :Chapter 10
  85. 00:32:20.897                             : :Chapter 11
  86. 00:36:17.884                             : :Chapter 12
  87. 00:41:45.294                             : :Chapter 13
  88. 00:47:49.700                             : :Chapter 14
  89. 00:55:02.007                             : :Chapter 15
  90. 01:00:34.172                             : :Chapter 16
  91. 01:07:07.774                             : :Chapter 17
  92. 01:10:28.641                             : :Chapter 18
  93. 01:13:24.150                             : :Chapter 19
  94. 01:16:21.619                             : :Chapter 20
  95. 01:19:11.121                             : :Chapter 21
  96. 01:21:30.969                             : :Chapter 22
  97. 01:26:09.581                             : :Chapter 23
  98. 01:31:11.633                             : :Chapter 24
RAW Paste Data
We use cookies for various purposes including analytics. By continuing to use Pastebin, you agree to our use of cookies as described in the Cookies Policy. OK, I Understand
 
Top