SHARE
TWEET

KanColle Original Sound Track vol.Ⅲ Cue-Fix

wfhtony Jul 20th, 2018 727 Never
Not a member of Pastebin yet? Sign Up, it unlocks many cool features!
  1. REM GENRE ゲーム
  2. REM DATE 2018
  3. REM DISCID 6110AF18
  4. REM COMMENT ExactAudioCopy v1.3
  5. CATALOG 4573477880056
  6. PERFORMER "大越香里"
  7. TITLE "艦隊これくしょん -艦これ- KanColle Original Sound Track vol.Ⅲ 雲 Remaster Edition"
  8. FILE "大越香里 - 艦隊これくしょん -艦これ- KanColle Original Sound Track vol.Ⅲ 雲 Remaster Edition.wav" WAVE
  9.   TRACK 01 AUDIO
  10.     TITLE "特型駆逐艦"
  11.     PERFORMER "大越香里"
  12.     ISRC JPW361800041
  13.     INDEX 01 00:00:00
  14.   TRACK 02 AUDIO
  15.     TITLE "吹雪、出撃す!"
  16.     PERFORMER "大越香里"
  17.     ISRC JPW361800042
  18.     INDEX 00 04:05:73
  19.     INDEX 01 04:07:54
  20.   TRACK 03 AUDIO
  21.     TITLE "迎春の鎮守府"
  22.     PERFORMER "大越香里"
  23.     ISRC JPW361800043
  24.     INDEX 00 07:56:06
  25.     INDEX 01 07:57:62
  26.   TRACK 04 AUDIO
  27.     TITLE "節分の鎮守府"
  28.     PERFORMER "大越香里"
  29.     ISRC JPW361800044
  30.     INDEX 00 11:15:39
  31.     INDEX 01 11:17:20
  32.   TRACK 05 AUDIO
  33.     TITLE "新編「海上護衛隊」抜錨!"
  34.     PERFORMER "大越香里"
  35.     ISRC JPW361800045
  36.     INDEX 00 13:41:18
  37.     INDEX 01 13:42:74
  38.   TRACK 06 AUDIO
  39.     TITLE "艦娘のお菓子作り"
  40.     PERFORMER "大越香里"
  41.     ISRC JPW361800046
  42.     INDEX 00 16:53:18
  43.     INDEX 01 16:53:71
  44.   TRACK 07 AUDIO
  45.     TITLE "桃の節句と艦娘"
  46.     PERFORMER "大越香里"
  47.     ISRC JPW361800047
  48.     INDEX 00 20:15:07
  49.     INDEX 01 20:16:63
  50.   TRACK 08 AUDIO
  51.     TITLE "第三十駆逐隊、抜錨準備!"
  52.     PERFORMER "大越香里"
  53.     ISRC JPW361800048
  54.     INDEX 00 23:30:60
  55.     INDEX 01 23:32:41
  56.   TRACK 09 AUDIO
  57.     TITLE "睦月型駆逐艦の戦い"
  58.     PERFORMER "大越香里"
  59.     ISRC JPW361800049
  60.     INDEX 00 25:23:52
  61.     INDEX 01 25:25:33
  62.   TRACK 10 AUDIO
  63.     TITLE "連合艦隊、西へ"
  64.     PERFORMER "大越香里"
  65.     ISRC JPW361800050
  66.     INDEX 00 28:55:72
  67.     INDEX 01 28:57:53
  68.   TRACK 11 AUDIO
  69.     TITLE "敵地侵入"
  70.     PERFORMER "大越香里"
  71.     ISRC JPW361800051
  72.     INDEX 00 32:09:58
  73.     INDEX 01 32:11:39
  74.   TRACK 12 AUDIO
  75.     TITLE "深海への誘い"
  76.     PERFORMER "大越香里、とわたり"
  77.     ISRC JPW361800052
  78.     INDEX 00 34:43:37
  79.     INDEX 01 34:45:18
  80.   TRACK 13 AUDIO
  81.     TITLE "モドレナイノ"
  82.     PERFORMER "大越香里"
  83.     ISRC JPW361800053
  84.     INDEX 00 38:24:10
  85.     INDEX 01 38:25:66
  86.   TRACK 14 AUDIO
  87.     TITLE "雨音の鎮守府"
  88.     PERFORMER "大越香里"
  89.     ISRC JPW361800054
  90.     INDEX 00 40:33:15
  91.     INDEX 01 40:34:71
  92.   TRACK 15 AUDIO
  93.     TITLE "雨とお酒の艦娘"
  94.     PERFORMER "大越香里"
  95.     ISRC JPW361800055
  96.     INDEX 00 44:00:31
  97.     INDEX 01 44:02:12
  98.   TRACK 16 AUDIO
  99.     TITLE "浜辺の艦娘"
  100.     PERFORMER "大越香里"
  101.     ISRC JPW361800056
  102.     INDEX 00 46:57:50
  103.     INDEX 01 46:59:31
  104.   TRACK 17 AUDIO
  105.     TITLE "艦隊の再集結"
  106.     PERFORMER "大越香里"
  107.     ISRC JPW361800057
  108.     INDEX 00 49:26:29
  109.     INDEX 01 49:28:10
  110.   TRACK 18 AUDIO
  111.     TITLE "出撃!第八艦隊"
  112.     PERFORMER "大越香里"
  113.     ISRC JPW361800058
  114.     INDEX 00 51:40:24
  115.     INDEX 01 51:42:05
  116.   TRACK 19 AUDIO
  117.     TITLE "艦隊、ソロモン海へ!"
  118.     PERFORMER "大越香里"
  119.     ISRC JPW361800059
  120.     INDEX 00 54:33:09
  121.     INDEX 01 54:34:65
  122.   TRACK 20 AUDIO
  123.     TITLE "深海水上打撃部隊"
  124.     PERFORMER "大越香里"
  125.     ISRC JPW361800060
  126.     INDEX 00 57:53:72
  127.     INDEX 01 57:55:53
  128.   TRACK 21 AUDIO
  129.     TITLE "アイアンボトムサウンド"
  130.     PERFORMER "大越香里"
  131.     ISRC JPW361800061
  132.     INDEX 00 61:05:11
  133.     INDEX 01 61:06:67
  134.   TRACK 22 AUDIO
  135.     TITLE "激突!夜間砲撃戦!"
  136.     PERFORMER "大越香里"
  137.     ISRC JPW361800062
  138.     INDEX 00 63:41:28
  139.     INDEX 01 63:43:09
  140.   TRACK 23 AUDIO
  141.     TITLE "加賀岬改(母港ver)"
  142.     PERFORMER "大越香里"
  143.     ISRC JPW361800063
  144.     INDEX 00 67:09:16
  145.     INDEX 01 67:10:72
  146.   TRACK 24 AUDIO
  147.     TITLE "加賀岬(実装ver)"
  148.     PERFORMER "加賀 (CV.井口裕香)"
  149.     ISRC JPW361800064
  150.     INDEX 00 68:58:37
  151.     INDEX 01 69:00:18
RAW Paste Data
We use cookies for various purposes including analytics. By continuing to use Pastebin, you agree to our use of cookies as described in the Cookies Policy. OK, I Understand
Not a member of Pastebin yet?
Sign Up, it unlocks many cool features!
 
Top