Interfilm

Untitled

Nov 9th, 2014
471
Never
Not a member of Pastebin yet? Sign Up, it unlocks many cool features!
  1. General
  2. Palo.Alto.2013.Blu.Ray.720p.CINEMANIA.mkv
  3. Format : Matroska
  4. Format version : Version 4 / Version 2
  5. File size : 5.08 GiB
  6. Duration : 1h 39mn
  7. Overall bit rate : 7 270 Kbps
  8. Movie name : Release Group CINEMANIA
  9. Encoded date : UTC 2014-11-06 15:35:52
  10. Writing application : mkvmerge v7.3.0 ('Nouages') 64bit built on Oct 22 2014 18:53:34
  11. Writing library : libebml v1.3.0 + libmatroska v1.4.1
  12.  
  13. Video
  14. ID : 1
  15. Format : AVC
  16. Format/Info : Advanced Video Codec
  17. Format profile : High@L4.1
  18. Format settings, CABAC : Yes
  19. Format settings, ReFrames : 9 frames
  20. Codec ID : V_MPEG4/ISO/AVC
  21. Duration : 1h 39mn
  22. Bit rate : 6 229 Kbps
  23. Width : 1 280 pixels
  24. Height : 690 pixels
  25. Display aspect ratio : 1.85:1
  26. Original display aspect ratio : 1.85:1
  27. Frame rate mode : Constant
  28. Frame rate : 23.976 fps
  29. Color space : YUV
  30. Chroma subsampling : 4:2:0
  31. Bit depth : 8 bits
  32. Scan type : Progressive
  33. Bits/(Pixel*Frame) : 0.294
  34. Stream size : 4.35 GiB (86%)
  35. Title : Release Group CINEMANIA
  36. Writing library : x264 core 142 r2431+42 c69a006 tMod [8-bit@4:2:0 X86_64]
  37. Encoding settings : cabac=1 / ref=9 / deblock=1:-3:-3 / analyse=0x3:0x133 / me=umh / subme=10 / psy=1 / fade_compensate=0.00 / psy_rd=1.00:0.00 / mixed_ref=1 / me_range=24 / chroma_me=1 / trellis=2 / 8x8dct=1 / cqm=0 / deadzone=21,11 / fast_pskip=1 / chroma_qp_offset=-2 / threads=12 / lookahead_threads=2 / sliced_threads=0 / nr=0 / decimate=1 / interlaced=0 / bluray_compat=0 / constrained_intra=0 / fgo=0 / bframes=9 / b_pyramid=2 / b_adapt=2 / b_bias=0 / direct=3 / weightb=1 / open_gop=0 / weightp=2 / keyint=250 / keyint_min=23 / scenecut=40 / intra_refresh=0 / rc=crf / mbtree=0 / crf=16.4000 / qcomp=0.65 / qpmin=0:0:0 / qpmax=69:69:69 / qpstep=4 / ip_ratio=1.30 / pb_ratio=1.20 / aq=4:0.85 / aq-sensitivity=10.00 / aq-factor=1.00:1.00:1.00 / aq2=0 / aq3=0
  38. Language : English
  39. Default : Yes
  40. Forced : No
  41. Matrix coefficients : BT.709
  42.  
  43. Audio #1
  44. ID : 2
  45. Format : AC-3
  46. Format/Info : Audio Coding 3
  47. Mode extension : CM (complete main)
  48. Format settings, Endianness : Big
  49. Codec ID : A_AC3
  50. Duration : 1h 39mn
  51. Bit rate mode : Constant
  52. Bit rate : 256 Kbps
  53. Channel(s) : 2 channels
  54. Channel positions : Front: L R
  55. Sampling rate : 48.0 KHz
  56. Bit depth : 16 bits
  57. Compression mode : Lossy
  58. Stream size : 183 MiB (4%)
  59. Title : Антошка Агапов
  60. Language : Russian
  61. Default : Yes
  62. Forced : Yes
  63.  
  64. Audio #2
  65. ID : 3
  66. Format : AC-3
  67. Format/Info : Audio Coding 3
  68. Mode extension : CM (complete main)
  69. Format settings, Endianness : Big
  70. Codec ID : A_AC3
  71. Duration : 1h 39mn
  72. Bit rate mode : Constant
  73. Bit rate : 640 Kbps
  74. Channel(s) : 6 channels
  75. Channel positions : Front: L C R, Side: L R, LFE
  76. Sampling rate : 48.0 KHz
  77. Bit depth : 16 bits
  78. Compression mode : Lossy
  79. Stream size : 458 MiB (9%)
  80. Language : English
  81. Default : No
  82. Forced : No
  83.  
  84. Text #2
  85. ID : 5
  86. Format : UTF-8
  87. Codec ID : S_TEXT/UTF8
  88. Codec ID/Info : UTF-8 Plain Text
  89. Title : Dr.pro
  90. Language : Russian
  91. Default : No
  92. Forced : No
  93.  
  94. Text #3
  95. ID : 6
  96. Format : UTF-8
  97. Codec ID : S_TEXT/UTF8
  98. Codec ID/Info : UTF-8 Plain Text
  99. Language : English
  100. Default : No
  101. Forced : No
  102.  
  103. Text #4
  104. ID : 7
  105. Format : UTF-8
  106. Codec ID : S_TEXT/UTF8
  107. Codec ID/Info : UTF-8 Plain Text
  108. Language : English
  109. Default : No
  110. Forced : No
  111.  
  112. Menu
  113. 00:00:00.000 : en:00:00:00.000
  114. 00:05:47.305 : en:00:05:47.305
  115. 00:08:25.130 : en:00:08:25.130
  116. 00:19:04.477 : en:00:19:04.477
  117. 00:22:10.454 : en:00:22:10.454
  118. 00:27:39.491 : en:00:27:39.491
  119. 00:30:11.727 : en:00:30:11.727
  120. 00:35:39.054 : en:00:35:39.054
  121. 00:43:53.548 : en:00:43:53.548
  122. 00:54:12.916 : en:00:54:12.916
  123. 01:04:04.674 : en:01:04:04.674
  124. 01:11:45.218 : en:01:11:45.218
  125. 01:15:53.090 : en:01:15:53.090
  126. 01:21:45.692 : en:01:21:45.692
  127. 01:29:50.552 : en:01:29:50.552
  128. 01:33:57.757 : en:01:33:57.757
RAW Paste Data