SHARE
TWEET

Untitled

Secasa Jul 17th, 2017 3 Never
Not a member of Pastebin yet? Sign Up, it unlocks many cool features!
  1. Format                                   : Matroska
  2. Format version                           : Version 2
  3. File size                                : 12.1 GiB
  4. Duration                                 : 1h 56mn
  5. Overall bit rate                         : 14.8 Mbps
  6. Encoded date                             : UTC 2017-07-16 21:42:39
  7. Writing application                      : mkvmerge v5.3.0 ('I could have danced') built on Feb  9 2012 10:38:07
  8. Writing library                          : libebml v1.2.3 + libmatroska v1.3.0
  9.  
  10. Video
  11. ID                                       : 1
  12. Format                                   : AVC
  13. Format/Info                              : Advanced Video Codec
  14. Format profile                           : High@L4.1
  15. Format settings, CABAC                   : Yes
  16. Format settings, ReFrames                : 5 frames
  17. Codec ID                                 : V_MPEG4/ISO/AVC
  18. Duration                                 : 1h 56mn
  19. Bit rate                                 : 13.4 Mbps
  20. Width                                    : 1 920 pixels
  21. Height                                   : 804 pixels
  22. Display aspect ratio                     : 2.40:1
  23. Frame rate mode                          : Constant
  24. Frame rate                               : 24.000 fps
  25. Color space                              : YUV
  26. Chroma subsampling                       : 4:2:0
  27. Bit depth                                : 8 bits
  28. Scan type                                : Progressive
  29. Bits/(Pixel*Frame)                       : 0.361
  30. Stream size                              : 10.9 GiB (91%)
  31. Writing library                          : x264 core 148 r2744kMod b97ae06
  32. Encoding settings                        : cabac=1 / ref=5 / deblock=1:-3:-3 / analyse=0x3:0x133 / me=umh / subme=11 / psy=1 / fade_compensate=0.00 / psy_rd=1.05:0.00 / mixed_ref=1 / me_range=32 / chroma_me=1 / trellis=2 / 8x8dct=1 / cqm=0 / deadzone=21,11 / fast_pskip=0 / chroma_qp_offset=-2 / threads=12 / lookahead_threads=2 / sliced_threads=0 / nr=0 / decimate=0 / interlaced=0 / bluray_compat=0 / constrained_intra=0 / bframes=9 / b_pyramid=2 / b_adapt=2 / b_bias=0 / direct=3 / weightb=1 / open_gop=0 / weightp=2 / keyint=250 / keyint_min=24 / scenecut=40 / intra_refresh=0 / rc_lookahead=60 / rc=crf / mbtree=0 / crf=17.4000 / qcomp=0.60 / qpmin=0 / qpmax=69 / qpstep=4 / vbv_maxrate=62500 / vbv_bufsize=78125 / crf_max=0.0 / nal_hrd=none / filler=0 / ip_ratio=1.36 / pb_ratio=1.26 / aq=3:0.76 / zones=52350,52482,crf=14.0/64189,66104,crf=14.0/144837,144932,crf=14.0
  33. Language                                 : Spanish
  34. Default                                  : Yes
  35. Forced                                   : No
  36.  
  37. Audio #1
  38. ID                                       : 2
  39. Format                                   : AC-3
  40. Format/Info                              : Audio Coding 3
  41. Mode extension                           : CM (complete main)
  42. Format settings, Endianness              : Big
  43. Codec ID                                 : A_AC3
  44. Duration                                 : 1h 56mn
  45. Bit rate mode                            : Constant
  46. Bit rate                                 : 448 Kbps
  47. Channel count                            : 2 channels
  48. Channel positions                        : Front: L R
  49. Sampling rate                            : 44.1 KHz
  50. Bit depth                                : 16 bits
  51. Compression mode                         : Lossy
  52. Stream size                              : 375 MiB (3%)
  53. Language                                 : Spanish
  54. Default                                  : Yes
  55. Forced                                   : No
  56.  
  57. Audio #2
  58. ID                                       : 3
  59. Format                                   : AC-3
  60. Format/Info                              : Audio Coding 3
  61. Mode extension                           : CM (complete main)
  62. Format settings, Endianness              : Big
  63. Codec ID                                 : A_AC3
  64. Duration                                 : 1h 56mn
  65. Bit rate mode                            : Constant
  66. Bit rate                                 : 640 Kbps
  67. Channel count                            : 6 channels
  68. Channel positions                        : Front: L C R, Side: L R, LFE
  69. Sampling rate                            : 48.0 KHz
  70. Bit depth                                : 16 bits
  71. Compression mode                         : Lossy
  72. Stream size                              : 535 MiB (4%)
  73. Language                                 : Hindi
  74. Default                                  : No
  75. Forced                                   : No
  76.  
  77. Text
  78. ID                                       : 4
  79. Format                                   : UTF-8
  80. Codec ID                                 : S_TEXT/UTF8
  81. Codec ID/Info                            : UTF-8 Plain Text
  82. Language                                 : English
  83. Default                                  : No
  84. Forced                                   : No
  85.  
  86. Menu
  87. 00:00:00.000                             : en:Marriage Proposal
  88. 00:09:49.333                             : en:Paternalistic Panchayat
  89. 00:17:54.792                             : en:Bhookamp...
  90. 00:20:50.625                             : en:Raw Deal In Life
  91. 00:30:52.417                             : en:Baisaa...
  92. 00:33:07.833                             : en:Double Standard Society
  93. 00:43:21.625                             : en:Authentic Bond & Love
  94. 00:56:24.583                             : en:A Misogynist mindset
  95. 01:08:16.458                             : en:Decision for better life
  96. 01:12:41.333                             : en:Mai Ri Mai...
  97. 01:16:14.792                             : en:Kachhuva...
  98. 01:19:05.625                             : en:Social Apathy
  99. 01:29:04.625                             : en:Embezzlement
  100. 01:41:18.125                             : en:Breaking Shackles
  101. 01:53:58.417                             : en:Hichki...
RAW Paste Data
Pastebin PRO Summer Special!
Get 60% OFF on Pastebin PRO accounts!
Top