Advertisement
Guest User

MI

a guest
Feb 21st, 2013
128
Never
Not a member of Pastebin yet? Sign Up, it unlocks many cool features!
  1. General
  2. Полное имя : Y:\_video_y_\Hell.On.Wheels.S02E02.rus.LostFilm.TV.avi
  3. Формат : AVI
  4. Формат/Информация : Audio Video Interleave
  5. Размер файла : 532 MiB
  6. Продолжительность : 43mn 11s
  7. Общий поток : 1 723 Kbps
  8. Программа кодирования : Nandub v1.0rc2
  9. Библиотека кодирования : Nandub build 1853/release
  10.  
  11. Video
  12. Идентификатор : 0
  13. Формат : MPEG-4 Visual
  14. Профиль формата : Simple@L3
  15. Параметр BVOP формата : No
  16. Параметр QPel формата : No
  17. Параметр GMC формата : No warppoints
  18. Параметр матрицы формата : Default (H.263)
  19. Идентификатор кодека : XVID
  20. Идентификатор кодека/Подсказка : XviD
  21. Продолжительность : 43mn 11s
  22. Битрейт : 1 582 Kbps
  23. Ширина : 720 pixels
  24. Высота : 400 pixels
  25. Соотношение сторон : 16:9
  26. Частота кадров : 23.976 fps
  27. Цветовое пространство : YUV
  28. Субдискретизация насыщенности : 4:2:0
  29. Битовая глубина : 8 bits
  30. Тип развёртки : Progressive
  31. Метод сжатия : Lossy
  32. Бит/(Пиксели*Кадры) : 0.229
  33. Размер потока : 489 MiB (92%)
  34. Библиотека кодирования : XviD 1.2.1 (UTC 2008-12-04)
  35.  
  36. Audio
  37. Идентификатор : 1
  38. Формат : MPEG Audio
  39. Версия формата : Version 1
  40. Профиль формата : Layer 3
  41. Режим : Joint stereo
  42. Расширение режима : MS Stereo
  43. Идентификатор кодека : 55
  44. Идентификатор кодека/Подсказка : MP3
  45. Продолжительность : 43mn 11s
  46. Вид битрейта : Constant
  47. Битрейт : 128 Kbps
  48. Каналы : 2 channels
  49. Частота : 48.0 KHz
  50. Метод сжатия : Lossy
  51. Размер потока : 39.5 MiB (7%)
  52. Выравнивание : Aligned on interleaves
  53. Продолжительность промежутка : 24 ms (0.58 video frame)
  54. Время предзагрузки промежутка : 480 ms
Advertisement
Advertisement
Advertisement
RAW Paste Data Copied
Advertisement