Guest User

Untitled

a guest
Jan 13th, 2017
698
Never
Not a member of Pastebin yet? Sign Up, it unlocks many cool features!
  1. http://192.168.178.71:8096/emby/videos/a2a37813a1a86b3f22fd1c905067ffe3/hls1/main/0.ts?DeviceId=8807566af4293d01d70420fe04cecbaa6c96eaa6&MediaSourceId=a2a37813a1a86b3f22fd1c905067ffe3&VideoCodec=h264&AudioCodec=aac&AudioStreamIndex=1&VideoBitrate=1616000&AudioBitrate=384000&Level=41&Profile=high&PlaySessionId=d5f56617e9334e9fb12af430a7c6a973&api_key=99569292838d4e9b95204e630d473c7e&CopyTimestamps=false&TranscodingMaxAudioChannels=2&EnableSubtitlesInManifest=false&Tag=70221fbda44ba60076184d226a8e668c&EnableSplittingOnNonKeyFrames=false
  2.  
  3. {"Protocol":"File","Id":"a2a37813a1a86b3f22fd1c905067ffe3","Path":"/storage/videos/Chronicle.mkv","Type":"Default","Container":"mkv","Name":"720P/H264/AC3","ETag":"70221fbda44ba60076184d226a8e668c","RunTimeTicks":53714240000,"ReadAtNativeFramerate":false,"SupportsTranscoding":true,"SupportsDirectStream":true,"SupportsDirectPlay":true,"IsInfiniteStream":false,"RequiresOpening":false,"RequiresClosing":false,"SupportsProbing":true,"VideoType":"VideoFile","MediaStreams":[{"Codec":"h264","Language":"ger","TimeBase":"1/1000","CodecTimeBase":"1127/54042","Title":"DerSchuft","DisplayTitle":"Ger DerSchuft","NalLengthSize":"4","IsInterlaced":false,"IsAVC":true,"BitRate":7366778,"BitDepth":8,"RefFrames":1,"IsDefault":true,"IsForced":true,"Height":688,"Width":1280,"AverageFrameRate":23.97604,"RealFrameRate":23.97604,"Profile":"High","Type":"Video","AspectRatio":"1.85:1","Index":0,"IsExternal":false,"IsTextSubtitleStream":false,"SupportsExternalStream":false,"PixelFormat":"yuv420p","Level":41,"IsAnamorphic":false},{"Codec":"ac3","Language":"ger","TimeBase":"1/1000","CodecTimeBase":"1/48000","DisplayTitle":"Ger Dolby Digital stereo Default","IsInterlaced":false,"ChannelLayout":"stereo","BitRate":384000,"Channels":2,"SampleRate":48000,"IsDefault":true,"IsForced":false,"Type":"Audio","Index":1,"IsExternal":false,"IsTextSubtitleStream":false,"SupportsExternalStream":false,"Level":0},{"Codec":"dts","Language":"eng","TimeBase":"1/1000","CodecTimeBase":"1/48000","DisplayTitle":"Eng DTS 5.1","IsInterlaced":false,"ChannelLayout":"5.1","BitRate":1536000,"Channels":6,"SampleRate":48000,"IsDefault":false,"IsForced":false,"Profile":"DTS","Type":"Audio","Index":2,"IsExternal":false,"IsTextSubtitleStream":false,"SupportsExternalStream":false,"Level":0}],"PlayableStreamFileNames":[],"Formats":[],"Bitrate":7366778,"RequiredHttpHeaders":{}}
  4.  
  5. /storage/.kodi/addons/service.emby/bin/ffmpegx -i file:"/storage/videos/Chronicle.mkv" -map_metadata -1 -threads 4 -map 0:0 -map 0:1 -map -0:s -codec:v:0 h264_omx -b:v 1616000 -maxrate 1616000 -bufsize 3232000 -vsync -1 -force_key_frames "expr:gte(t,n_forced*3)" -vf "scale=trunc(min(max(iw\,ih*dar)\,1280)/2)*2:trunc(ow/dar/2)*2" -flags -global_header -copyts -codec:a:0 aac -strict experimental -ac 2 -ab 384000 -af "adelay=1,aresample=async=1" -max_delay 5000000 -avoid_negative_ts disabled -start_at_zero -hls_time 3 -start_number 0 -hls_list_size 0 -y "/tmp/transcoding-temp/31e1f4fbbfef4998b8fdb141edbe5600.m3u8"
  6.  
  7.  
  8. ffmpeg version 7.90.009-232-g9b51056-x Copyright (c) 2000-2016 the FFmpeg developers
  9. built with gcc 6.2.0 (GCC)
  10. configuration: --enable-gpl --disable-doc --enable-mmal --enable-omx-rpi --enable-libmp3lame --enable-openssl --arch=arm --cpu=cortex-a7 --cross-prefix=/home/chewitt/LibreELEC.80-addons/build.LibreELEC-RPi2.arm-8.0.0/toolchain/bin/armv7ve-libreelec-linux-gnueabi- --enable-cross-compile --sysroot=/home/chewitt/LibreELEC.80-addons/build.LibreELEC-RPi2.arm-8.0.0/toolchain/armv7ve-libreelec-linux-gnueabi/sysroot --sysinclude=/home/chewitt/LibreELEC.80-addons/build.LibreELEC-RPi2.arm-8.0.0/toolchain/armv7ve-libreelec-linux-gnueabi/sysroot/usr/include --target-os=linux --nm=/home/chewitt/LibreELEC.80-addons/build.LibreELEC-RPi2.arm-8.0.0/toolchain/bin/armv7ve-libreelec-linux-gnueabi-nm --ar=/home/chewitt/LibreELEC.80-addons/build.LibreELEC-RPi2.arm-8.0.0/toolchain/bin/armv7ve-libreelec-linux-gnueabi-ar --as=/home/chewitt/LibreELEC.80-addons/build.LibreELEC-RPi2.arm-8.0.0/toolchain/bin/armv7ve-libreelec-linux-gnueabi-gcc --cc=/home/chewitt/LibreELEC.80-addons/build.LibreELEC-RPi2.arm-8.0.0/toolchain/bin/armv7ve-libreelec-linux-gnueabi-gcc --ld=/home/chewitt/LibreELEC.80-addons/build.LibreELEC-RPi2.arm-8.0.0/toolchain/bin/armv7ve-libreelec-linux-gnueabi-gcc --pkg-config=/home/chewitt/LibreELEC.80-addons/build.LibreELEC-RPi2.arm-8.0.0/toolchain/bin/pkg-config --host-cc=/home/chewitt/LibreELEC.80-addons/build.LibreELEC-RPi2.arm-8.0.0/toolchain/bin/host-gcc --host-cflags='-O2 -Wall -pipe -I/home/chewitt/LibreELEC.80-addons/build.LibreELEC-RPi2.arm-8.0.0/toolchain/include -Wno-format-security' --host-ldflags='-Wl,-rpath,/home/chewitt/LibreELEC.80-addons/build.LibreELEC-RPi2.arm-8.0.0/toolchain/lib -L/home/chewitt/LibreELEC.80-addons/build.LibreELEC-RPi2.arm-8.0.0/toolchain/lib' --host-libs=-lm --extra-cflags='-DRPI=1 -I/home/chewitt/LibreELEC.80-addons/build.LibreELEC-RPi2.arm-8.0.0/toolchain/armv7ve-libreelec-linux-gnueabi/sysroot/usr/include/IL -I/home/chewitt/LibreELEC.80-addons/build.LibreELEC-RPi2.arm-8.0.0/toolchain/armv7ve-libreelec-linux-gnueabi/sysroot/usr/include/interface/vcos/pthreads -I/home/chewitt/LibreELEC.80-addons/build.LibreELEC-RPi2.arm-8.0.0/toolchain/armv7ve-libreelec-linux-gnueabi/sysroot/usr/include/interface/vmcs_host/linux -march=armv7ve -mabi=aapcs-linux -Wno-psabi -Wa,-mno-warn-deprecated -mcpu=cortex-a7 -mfloat-abi=hard -mfpu=neon-vfpv4 -fomit-frame-pointer -Wall -pipe -Os ' --extra-ldflags='-march=armv7ve -mtune=cortex-a7 -Wl,--as-needed ' --extra-libs='-lbcm_host -ldl -lmmal -lmmal_core -lmmal_util -lvchiq_arm -lvcos -lvcsm' --extra-version=x --enable-pic --enable-hardcoded-tables
  11. libavutil 55. 28.100 / 55. 28.100
  12. libavcodec 57. 48.101 / 57. 48.101
  13. libavformat 57. 41.100 / 57. 41.100
  14. libavdevice 57. 0.101 / 57. 0.101
  15. libavfilter 6. 47.100 / 6. 47.100
  16. libswscale 4. 1.100 / 4. 1.100
  17. libswresample 2. 1.100 / 2. 1.100
  18. libpostproc 54. 0.100 / 54. 0.100
  19. Input #0, matroska,webm, from 'file:/storage/videos/Chronicle.mkv':
  20. Metadata:
  21. encoder : libebml v1.2.0 + libmatroska v1.1.0
  22. creation_time : 2012-04-28 09:27:16
  23. Duration: 01:29:31.42, start: 0.000000, bitrate: 7366 kb/s
  24. Stream #0:0(ger): Video: h264 (High), yuv420p, 1280x688 [SAR 1:1 DAR 80:43], 23.98 fps, 23.98 tbr, 1k tbn, 47.95 tbc (default) (forced)
  25. Metadata:
  26. title : DerSchuft
  27. Stream #0:1(ger): Audio: ac3, 48000 Hz, stereo, fltp, 384 kb/s (default)
  28. Stream #0:2(eng): Audio: dts (DTS), 48000 Hz, 5.1(side), fltp, 1536 kb/s
  29. [h264_omx @ 0x1fef470] Using OMX.broadcom.video_encode
  30. [hls @ 0x2002730] Using AVStream.codec to pass codec parameters to muxers is deprecated, use AVStream.codecpar instead.
  31. Last message repeated 1 times
  32. Output #0, hls, to '/tmp/transcoding-temp/31e1f4fbbfef4998b8fdb141edbe5600.m3u8':
  33. Metadata:
  34. encoder : Lavf57.41.100
  35. Stream #0:0: Video: h264 (h264_omx), yuv420p, 1280x688 [SAR 1:1 DAR 80:43], q=2-31, 1616 kb/s, 23.98 fps, 90k tbn, 23.98 tbc (default) (forced)
  36. Metadata:
  37. encoder : Lavc57.48.101 h264_omx
  38. Stream #0:1: Audio: aac (LC), 48000 Hz, stereo, fltp, 384 kb/s (default)
  39. Metadata:
  40. encoder : Lavc57.48.101 aac
  41. Stream mapping:
  42. Stream #0:0 -> #0:0 (h264 (native) -> h264 (h264_omx))
  43. Stream #0:1 -> #0:1 (ac3 (native) -> aac (native))
  44. Press [q] to stop, [?] for help
  45. VPU thread: policy=0 (???), pri=0
  46. Attempt to set: policy=1 (FIFO), pri=99
  47. VPU thread (after): policy=1 (FIFO), pri=99
  48. [hls @ 0x2002730] Non-monotonous DTS in output stream 0:0; previous: 0, current: 0; changing to 1. This may result in incorrect timestamps in the output file.
  49. frame= 7 fps=0.0 q=-0.0 size=N/A time=00:00:00.55 bitrate=N/A speed=1.07x
  50. frame= 19 fps= 19 q=-0.0 size=N/A time=00:00:01.04 bitrate=N/A speed=1.02x
  51. frame= 31 fps= 20 q=-0.0 size=N/A time=00:00:01.49 bitrate=N/A speed=0.981x
  52. frame= 43 fps= 21 q=-0.0 size=N/A time=00:00:01.96 bitrate=N/A speed=0.97x
  53. frame= 49 fps= 19 q=-0.0 size=N/A time=00:00:02.41 bitrate=N/A speed=0.942x
  54. frame= 61 fps= 20 q=-0.0 size=N/A time=00:00:02.85 bitrate=N/A speed=0.931x
  55. frame= 67 fps= 19 q=-0.0 size=N/A time=00:00:03.11 bitrate=N/A speed=0.863x
  56. frame= 74 fps= 18 q=-0.0 size=N/A time=00:00:03.34 bitrate=N/A speed=0.814x
  57. frame= 80 fps= 17 q=-0.0 size=N/A time=00:00:03.75 bitrate=N/A speed=0.804x
  58. frame= 92 fps= 18 q=-0.0 size=N/A time=00:00:04.05 bitrate=N/A speed=0.783x
  59. frame= 97 fps= 17 q=-0.0 size=N/A time=00:00:04.30 bitrate=N/A speed=0.754x
  60. frame= 103 fps= 16 q=-0.0 size=N/A time=00:00:04.52 bitrate=N/A speed=0.722x
  61. frame= 121 fps= 18 q=-0.0 size=N/A time=00:00:05.22 bitrate=N/A speed=0.77x
  62. frame= 133 fps= 18 q=-0.0 size=N/A time=00:00:05.73 bitrate=N/A speed=0.787x
  63. frame= 139 fps= 18 q=-0.0 size=N/A time=00:00:06.18 bitrate=N/A speed=0.792x
  64. frame= 144 fps= 17 q=-0.0 size=N/A time=00:00:06.44 bitrate=N/A speed=0.771x
  65. frame= 150 fps= 17 q=-0.0 size=N/A time=00:00:06.63 bitrate=N/A speed=0.746x
  66. frame= 162 fps= 17 q=-0.0 size=N/A time=00:00:06.95 bitrate=N/A speed=0.74x
  67. frame= 172 fps= 17 q=-0.0 size=N/A time=00:00:07.46 bitrate=N/A speed=0.754x
  68. frame= 182 fps= 17 q=-0.0 size=N/A time=00:00:07.97 bitrate=N/A speed=0.764x
  69. frame= 198 fps= 18 q=-0.0 size=N/A time=00:00:08.61 bitrate=N/A speed=0.788x
  70. frame= 206 fps= 18 q=-0.0 size=N/A time=00:00:09.13 bitrate=N/A speed=0.797x
  71. frame= 224 fps= 19 q=-0.0 size=N/A time=00:00:09.64 bitrate=N/A speed=0.806x
  72. frame= 240 fps= 19 q=-0.0 size=N/A time=00:00:10.38 bitrate=N/A speed=0.833x
  73. frame= 254 fps= 20 q=-0.0 size=N/A time=00:00:10.92 bitrate=N/A speed=0.842x
  74. frame= 266 fps= 20 q=-0.0 size=N/A time=00:00:11.49 bitrate=N/A speed=0.853x
  75. frame= 280 fps= 20 q=-0.0 size=N/A time=00:00:12.07 bitrate=N/A speed=0.864x
  76. frame= 288 fps= 20 q=-0.0 size=N/A time=00:00:12.39 bitrate=N/A speed=0.856x
  77. frame= 299 fps= 20 q=-0.0 size=N/A time=00:00:12.77 bitrate=N/A speed=0.851x
  78. frame= 310 fps= 20 q=-0.0 size=N/A time=00:00:13.20 bitrate=N/A speed=0.85x
  79. frame= 317 fps= 20 q=-0.0 size=N/A time=00:00:13.67 bitrate=N/A speed=0.853x
  80. frame= 333 fps= 20 q=-0.0 size=N/A time=00:00:14.22 bitrate=N/A speed=0.86x
  81. frame= 345 fps= 20 q=-0.0 size=N/A time=00:00:14.76 bitrate=N/A speed=0.863x
  82. frame= 350 fps= 20 q=-0.0 size=N/A time=00:00:15.08 bitrate=N/A speed=0.856x
  83. frame= 361 fps= 20 q=-0.0 size=N/A time=00:00:15.40 bitrate=N/A speed=0.848x
  84. frame= 369 fps= 20 q=-0.0 size=N/A time=00:00:15.82 bitrate=N/A speed=0.847x
  85. frame= 382 fps= 20 q=-0.0 size=N/A time=00:00:16.36 bitrate=N/A speed=0.852x
  86. frame= 395 fps= 20 q=-0.0 size=N/A time=00:00:16.87 bitrate=N/A speed=0.856x
  87. frame= 405 fps= 20 q=-0.0 size=N/A time=00:00:17.19 bitrate=N/A speed=0.85x
  88. frame= 413 fps= 20 q=-0.0 size=N/A time=00:00:17.51 bitrate=N/A speed=0.844x
  89. frame= 421 fps= 20 q=-0.0 size=N/A time=00:00:17.83 bitrate=N/A speed=0.839x
  90. frame= 432 fps= 20 q=-0.0 size=N/A time=00:00:18.26 bitrate=N/A speed=0.839x
  91. frame= 444 fps= 20 q=-0.0 size=N/A time=00:00:18.77 bitrate=N/A speed=0.843x
  92. frame= 456 fps= 20 q=-0.0 size=N/A time=00:00:19.41 bitrate=N/A speed=0.851x
  93. frame= 464 fps= 20 q=-0.0 size=N/A time=00:00:19.62 bitrate=N/A speed=0.842x
  94. frame= 478 fps= 20 q=-0.0 size=N/A time=00:00:20.30 bitrate=N/A speed=0.853x
  95. frame= 496 fps= 20 q=-0.0 size=N/A time=00:00:21.07 bitrate=N/A speed=0.866x
  96. frame= 512 fps= 21 q=-0.0 size=N/A time=00:00:21.67 bitrate=N/A speed=0.871x
  97. frame= 524 fps= 21 q=-0.0 size=N/A time=00:00:22.10 bitrate=N/A speed=0.87x
  98. frame= 532 fps= 21 q=-0.0 size=N/A time=00:00:22.44 bitrate=N/A speed=0.865x
  99. frame= 538 fps= 20 q=-0.0 size=N/A time=00:00:22.69 bitrate=N/A speed=0.856x
  100. frame= 543 fps= 20 q=-0.0 size=N/A time=00:00:22.99 bitrate=N/A speed=0.851x
  101. frame= 548 fps= 20 q=-0.0 size=N/A time=00:00:23.33 bitrate=N/A speed=0.848x
  102. frame= 559 fps= 20 q=-0.0 size=N/A time=00:00:23.76 bitrate=N/A speed=0.847x
  103. frame= 569 fps= 20 q=-0.0 size=N/A time=00:00:24.10 bitrate=N/A speed=0.844x
  104. frame= 574 fps= 20 q=-0.0 size=N/A time=00:00:24.36 bitrate=N/A speed=0.837x
  105. frame= 578 fps= 20 q=-0.0 size=N/A time=00:00:24.61 bitrate=N/A speed=0.832x
  106. frame= 586 fps= 19 q=-0.0 size=N/A time=00:00:24.85 bitrate=N/A speed=0.825x
  107. frame= 590 fps= 19 q=-0.0 size=N/A time=00:00:25.10 bitrate=N/A speed=0.819x
  108. frame= 598 fps= 19 q=-0.0 size=N/A time=00:00:25.32 bitrate=N/A speed=0.812x
  109. frame= 602 fps= 19 q=-0.0 size=N/A time=00:00:25.57 bitrate=N/A speed=0.806x
  110. frame= 610 fps= 19 q=-0.0 size=N/A time=00:00:25.81 bitrate=N/A speed=0.801x
  111. frame= 614 fps= 19 q=-0.0 size=N/A time=00:00:26.02 bitrate=N/A speed=0.795x
  112. frame= 622 fps= 19 q=-0.0 size=N/A time=00:00:26.26 bitrate=N/A speed=0.79x
  113. frame= 626 fps= 19 q=-0.0 size=N/A time=00:00:26.53 bitrate=N/A speed=0.785x
  114. frame= 634 fps= 18 q=-0.0 size=N/A time=00:00:26.73 bitrate=N/A speed=0.778x
  115. frame= 638 fps= 18 q=-0.0 size=N/A time=00:00:26.98 bitrate=N/A speed=0.773x
RAW Paste Data