SHARE
TWEET

Untitled

a guest Apr 20th, 2017 219 Never
Not a member of Pastebin yet? Sign Up, it unlocks many cool features!
  1. REM GENRE Country
  2. REM DATE 2017
  3. PERFORMER "Willie Nelson"
  4. TITLE "God's Problem Child"
  5. FILE "20170419_fl_wncd.mp3" MP3
  6.   TRACK 01 AUDIO
  7.     TITLE "Little House on the Hill"
  8.     PERFORMER "Willie Nelson"
  9.     INDEX 01 00:00:00
  10.   TRACK 02 AUDIO
  11.     TITLE "Old Timer"
  12.     PERFORMER "Willie Nelson"
  13.     INDEX 01 03:01:70
  14.   TRACK 03 AUDIO
  15.     TITLE "True Love"
  16.     PERFORMER "Willie Nelson"
  17.     INDEX 01 06:35:40
  18.   TRACK 04 AUDIO
  19.     TITLE "Delete and Fast Forward"
  20.     PERFORMER "Willie Nelson"
  21.     INDEX 01 09:36:10
  22.   TRACK 05 AUDIO
  23.     TITLE "A Woman's Love"
  24.     PERFORMER "Willie Nelson"
  25.     INDEX 01 12:59:80
  26.   TRACK 06 AUDIO
  27.     TITLE "Your Memory Has a Mind of Its Own"
  28.     PERFORMER "Willie Nelson"
  29.     INDEX 01 16:21:50
  30.   TRACK 07 AUDIO
  31.     TITLE "Butterfly"
  32.     PERFORMER "Willie Nelson"
  33.     INDEX 01 19:50:20
  34.   TRACK 08 AUDIO
  35.     TITLE "Still Not Dead"
  36.     PERFORMER "Willie Nelson"
  37.     INDEX 01 23:39:90
  38.   TRACK 09 AUDIO
  39.     TITLE "God's Problem Child"
  40.     PERFORMER "Willie Nelson"
  41.     INDEX 01 26:12:60
  42.   TRACK 10 AUDIO
  43.     TITLE "It Gets Easier"
  44.     PERFORMER "Willie Nelson"
  45.     INDEX 01 31:08:30
  46.   TRACK 11 AUDIO
  47.     TITLE "Lady Luck"
  48.     PERFORMER "Willie Nelson"
  49.     INDEX 01 34:15:00
  50.   TRACK 12 AUDIO
  51.     TITLE "I Made a Mistake"
  52.     PERFORMER "Willie Nelson"
  53.     INDEX 01 37:45:70
  54.   TRACK 13 AUDIO
  55.     TITLE "He Won't Ever Be Gone"
  56.     PERFORMER "Willie Nelson"
  57.     INDEX 01 41:02:40
RAW Paste Data
We use cookies for various purposes including analytics. By continuing to use Pastebin, you agree to our use of cookies as described in the Cookies Policy. OK, I Understand
 
Top