SHARE
TWEET

The.Elephant.Man.1980.1080p.BluRay.REMUX.AVC.DTS-HD.MA.5.1-EPSiLON

a guest Jun 11th, 2019 71 Never
Not a member of Pastebin yet? Sign Up, it unlocks many cool features!
  1. General
  2. Unique ID                                : 211923971299227695121929182006876499799 (0x9F6F127D64ED6BCB998179CDB932EF57)
  3. Complete name                            : The.Elephant.Man.1980.1080p.BluRay.REMUX.AVC.DTS-HD.MA.5.1-EPSiLON.mkv
  4. Format                                   : Matroska
  5. Format version                           : Version 4
  6. File size                                : 23.3 GiB
  7. Duration                                 : 2 h 3 min
  8. Overall bit rate mode                    : Variable
  9. Overall bit rate                         : 27.0 Mb/s
  10. Encoded date                             : UTC 2017-06-05 10:43:30
  11. Writing application                      : mkvmerge v12.0.0 ('Trust / Lust') 32bit
  12. Writing library                          : libebml v1.3.4 + libmatroska v1.4.5
  13.  
  14. Video
  15. ID                                       : 1
  16. Format                                   : AVC
  17. Format/Info                              : Advanced Video Codec
  18. Format profile                           : High@L4.1
  19. Format settings                          : CABAC / 4 Ref Frames
  20. Format settings, CABAC                   : Yes
  21. Format settings, Reference frames        : 4 frames
  22. Codec ID                                 : V_MPEG4/ISO/AVC
  23. Duration                                 : 2 h 3 min
  24. Bit rate mode                            : Variable
  25. Bit rate                                 : 24.9 Mb/s
  26. Maximum bit rate                         : 33.0 Mb/s
  27. Width                                    : 1 920 pixels
  28. Height                                   : 1 080 pixels
  29. Display aspect ratio                     : 16:9
  30. Frame rate mode                          : Constant
  31. Frame rate                               : 24.000 FPS
  32. Color space                              : YUV
  33. Chroma subsampling                       : 4:2:0
  34. Bit depth                                : 8 bits
  35. Scan type                                : Progressive
  36. Bits/(Pixel*Frame)                       : 0.501
  37. Stream size                              : 21.6 GiB (92%)
  38. Title                                    : MPEG-4 AVC Video / 24992 kbps / 1080p / 24 fps / 16:9 / High Profile 4.1
  39. Language                                 : English
  40. Default                                  : Yes
  41. Forced                                   : No
  42. Color range                              : Limited
  43. Color primaries                          : BT.709
  44. Transfer characteristics                 : BT.709
  45. Matrix coefficients                      : BT.709
  46.  
  47. Audio
  48. ID                                       : 2
  49. Format                                   : DTS XLL
  50. Format/Info                              : Digital Theater Systems
  51. Commercial name                          : DTS-HD Master Audio
  52. Codec ID                                 : A_DTS
  53. Duration                                 : 2 h 3 min
  54. Bit rate mode                            : Variable
  55. Bit rate                                 : 1 838 kb/s
  56. Channel(s)                               : 6 channels
  57. Channel layout                           : C L R Ls Rs LFE
  58. Sampling rate                            : 48.0 kHz
  59. Frame rate                               : 93.750 FPS (512 SPF)
  60. Bit depth                                : 16 bits
  61. Compression mode                         : Lossless
  62. Stream size                              : 1.59 GiB (7%)
  63. Title                                    : DTS-HD Master Audio / 5.1 / 48 kHz / 1838 kbps / 16-bit
  64. Language                                 : English
  65. Default                                  : Yes
  66. Forced                                   : No
  67.  
  68. Text #1
  69. ID                                       : 3
  70. Format                                   : PGS
  71. Codec ID                                 : S_HDMV/PGS
  72. Codec ID/Info                            : Picture based subtitle format used on BDs/HD-DVDs
  73. Duration                                 : 1 h 54 min
  74. Bit rate                                 : 21.4 kb/s
  75. Count of elements                        : 1676
  76. Stream size                              : 17.6 MiB (0%)
  77. Language                                 : English
  78. Default                                  : No
  79. Forced                                   : No
  80.  
  81. Text #2
  82. ID                                       : 4
  83. Format                                   : PGS
  84. Codec ID                                 : S_HDMV/PGS
  85. Codec ID/Info                            : Picture based subtitle format used on BDs/HD-DVDs
  86. Duration                                 : 2 h 1 min
  87. Bit rate                                 : 18.9 kb/s
  88. Count of elements                        : 1396
  89. Stream size                              : 16.3 MiB (0%)
  90. Language                                 : Danish
  91. Default                                  : No
  92. Forced                                   : No
  93.  
  94. Text #3
  95. ID                                       : 5
  96. Format                                   : PGS
  97. Codec ID                                 : S_HDMV/PGS
  98. Codec ID/Info                            : Picture based subtitle format used on BDs/HD-DVDs
  99. Duration                                 : 1 h 55 min
  100. Bit rate                                 : 22.4 kb/s
  101. Count of elements                        : 1688
  102. Stream size                              : 18.6 MiB (0%)
  103. Language                                 : Dutch
  104. Default                                  : No
  105. Forced                                   : No
  106.  
  107. Text #4
  108. ID                                       : 6
  109. Format                                   : PGS
  110. Codec ID                                 : S_HDMV/PGS
  111. Codec ID/Info                            : Picture based subtitle format used on BDs/HD-DVDs
  112. Duration                                 : 2 h 1 min
  113. Bit rate                                 : 18.7 kb/s
  114. Count of elements                        : 1290
  115. Stream size                              : 16.2 MiB (0%)
  116. Language                                 : Finnish
  117. Default                                  : No
  118. Forced                                   : No
  119.  
  120. Text #5
  121. ID                                       : 7
  122. Format                                   : PGS
  123. Codec ID                                 : S_HDMV/PGS
  124. Codec ID/Info                            : Picture based subtitle format used on BDs/HD-DVDs
  125. Duration                                 : 1 h 55 min
  126. Bit rate                                 : 19.1 kb/s
  127. Count of elements                        : 1666
  128. Stream size                              : 15.9 MiB (0%)
  129. Language                                 : French
  130. Default                                  : No
  131. Forced                                   : No
  132.  
  133. Text #6
  134. ID                                       : 8
  135. Format                                   : PGS
  136. Codec ID                                 : S_HDMV/PGS
  137. Codec ID/Info                            : Picture based subtitle format used on BDs/HD-DVDs
  138. Duration                                 : 2 h 1 min
  139. Bit rate                                 : 25.1 kb/s
  140. Count of elements                        : 1780
  141. Stream size                              : 21.8 MiB (0%)
  142. Language                                 : German
  143. Default                                  : No
  144. Forced                                   : No
  145.  
  146. Text #7
  147. ID                                       : 9
  148. Format                                   : PGS
  149. Codec ID                                 : S_HDMV/PGS
  150. Codec ID/Info                            : Picture based subtitle format used on BDs/HD-DVDs
  151. Duration                                 : 1 h 55 min
  152. Bit rate                                 : 20.4 kb/s
  153. Count of elements                        : 1690
  154. Stream size                              : 16.9 MiB (0%)
  155. Language                                 : Italian
  156. Default                                  : No
  157. Forced                                   : No
  158.  
  159. Text #8
  160. ID                                       : 10
  161. Format                                   : PGS
  162. Codec ID                                 : S_HDMV/PGS
  163. Codec ID/Info                            : Picture based subtitle format used on BDs/HD-DVDs
  164. Duration                                 : 2 h 0 min
  165. Bit rate                                 : 14.9 kb/s
  166. Count of elements                        : 1214
  167. Stream size                              : 12.8 MiB (0%)
  168. Language                                 : Norwegian
  169. Default                                  : No
  170. Forced                                   : No
  171.  
  172. Text #9
  173. ID                                       : 11
  174. Format                                   : PGS
  175. Codec ID                                 : S_HDMV/PGS
  176. Codec ID/Info                            : Picture based subtitle format used on BDs/HD-DVDs
  177. Duration                                 : 1 h 59 min
  178. Bit rate                                 : 26.6 kb/s
  179. Count of elements                        : 1816
  180. Stream size                              : 22.9 MiB (0%)
  181. Language                                 : Russian
  182. Default                                  : No
  183. Forced                                   : No
  184.  
  185. Text #10
  186. ID                                       : 12
  187. Format                                   : PGS
  188. Codec ID                                 : S_HDMV/PGS
  189. Codec ID/Info                            : Picture based subtitle format used on BDs/HD-DVDs
  190. Duration                                 : 1 h 55 min
  191. Bit rate                                 : 21.1 kb/s
  192. Count of elements                        : 1690
  193. Stream size                              : 17.5 MiB (0%)
  194. Language                                 : Spanish
  195. Default                                  : No
  196. Forced                                   : No
  197.  
  198. Text #11
  199. ID                                       : 13
  200. Format                                   : PGS
  201. Codec ID                                 : S_HDMV/PGS
  202. Codec ID/Info                            : Picture based subtitle format used on BDs/HD-DVDs
  203. Duration                                 : 2 h 1 min
  204. Bit rate                                 : 16.9 kb/s
  205. Count of elements                        : 1280
  206. Stream size                              : 14.6 MiB (0%)
  207. Language                                 : Swedish
  208. Default                                  : No
  209. Forced                                   : No
  210.  
  211. Menu
  212. 00:00:00.000                             : en:Chapter 1
  213. 00:08:55.750                             : en:Chapter 2
  214. 00:21:23.417                             : en:Chapter 3
  215. 00:29:06.500                             : en:Chapter 4
  216. 00:42:03.708                             : en:Chapter 5
  217. 00:52:28.375                             : en:Chapter 6
  218. 01:02:39.583                             : en:Chapter 7
  219. 01:10:25.000                             : en:Chapter 8
  220. 01:22:35.417                             : en:Chapter 9
  221. 01:35:21.417                             : en:Chapter 10
  222. 01:49:38.250                             : en:Chapter 11
  223. 02:00:57.417                             : en:Chapter 12
RAW Paste Data
We use cookies for various purposes including analytics. By continuing to use Pastebin, you agree to our use of cookies as described in the Cookies Policy. OK, I Understand
 
Top