Henry_Kr

BSoTD-2021

Jan 12th, 2021
39
Never
Not a member of Pastebin yet? Sign Up, it unlocks many cool features!
  1. Video
  2. ID : 1
  3. Format : AVC
  4. Format/Info : Advanced Video Codec
  5. Format profile : High@L4
  6. Format settings : CABAC / 2 Ref Frames
  7. Format settings, CABAC : Yes
  8. Format settings, Reference : 2 frames
  9. Muxing mode : Header stripping
  10. Codec ID : V_MPEG4/ISO/AVC
  11. Duration : 1 h 22 min
  12. Bit rate : 5 541 kb/s
  13. Width : 1 920 pixels
  14. Height : 1 080 pixels
  15. Display aspect ratio : 16:9
  16. Frame rate mode : Constant
  17. Frame rate : 23.976 (24000/1001) FPS
  18. Color space : YUV
  19. Chroma subsampling : 4:2:0
  20. Bit depth : 8 bits
  21. Scan type : Progressive
  22. Bits/(Pixel*Frame) : 0.111
  23. Stream size : 3.20 GiB (86%)
  24. Title : Batman.Soul.of.The.Dragon.2021.1080p.WEB-DL.[CartoonNOW]
  25. Writing library : x264 core 155 r2901 7d0ff22
  26. Language : English
  27. Default : Yes
  28. Forced : No
  29. Color range : Limited
  30. Color primaries : BT.709
  31. Transfer characteristics : BT.709
  32. Matrix coefficients : BT.709
  33. Statistics Tags Issue : mkvmerge v52.0.0 ('Secret For The Mad') 64-bit 2021-01-12 01:25:52 / mkvmerge v5.8.0 ('No Sleep / Pillow') built on Sep 2 2012 15:37:04 2021-01-13 00:34:22
  34. FromStats_BitRate : 5668296
  35. FromStats_Duration : 01:22:37.953000000
  36. FromStats_FrameCount : 118872
  37. FromStats_StreamSize : 3512893232
  38.  
  39. Audio #1
  40. ID : 2
  41. Format : E-AC-3
  42. Format/Info : Enhanced AC-3
  43. Commercial name : Dolby Digital Plus
  44. Muxing mode : Header stripping
  45. Codec ID : A_EAC3
  46. Duration : 1 h 22 min
  47. Bit rate mode : Constant
  48. Bit rate : 384 kb/s
  49. Channel(s) : 6 channels
  50. Channel layout : L R C LFE Ls Rs
  51. Sampling rate : 48.0 kHz
  52. Frame rate : 31.250 FPS (1536 SPF)
  53. Compression mode : Lossy
  54. Stream size : 227 MiB (6%)
  55. Title : E-AC3 5.1
  56. Language : Portuguese
  57. Service kind : Complete Main
  58. Default : Yes
  59. Forced : No
  60. Statistics Tags Issue : mkvmerge v52.0.0 ('Secret For The Mad') 64-bit 2021-01-12 01:25:52 / mkvmerge v5.8.0 ('No Sleep / Pillow') built on Sep 2 2012 15:37:04 2021-01-13 00:34:22
  61. FromStats_BitRate : 384000
  62. FromStats_Duration : 01:22:38.048000000
  63. FromStats_FrameCount : 154939
  64. FromStats_StreamSize : 237986304
  65.  
  66. Audio #2
  67. ID : 3
  68. Format : E-AC-3
  69. Format/Info : Enhanced AC-3
  70. Commercial name : Dolby Digital Plus
  71. Muxing mode : Header stripping
  72. Codec ID : A_EAC3
  73. Duration : 1 h 22 min
  74. Bit rate mode : Constant
  75. Bit rate : 384 kb/s
  76. Channel(s) : 6 channels
  77. Channel layout : L R C LFE Ls Rs
  78. Sampling rate : 48.0 kHz
  79. Frame rate : 31.250 FPS (1536 SPF)
  80. Compression mode : Lossy
  81. Stream size : 227 MiB (6%)
  82. Title : E-AC3 5.1
  83. Language : English
  84. Service kind : Complete Main
  85. Default : No
  86. Forced : No
  87. Statistics Tags Issue : mkvmerge v52.0.0 ('Secret For The Mad') 64-bit 2021-01-12 01:25:52 / mkvmerge v5.8.0 ('No Sleep / Pillow') built on Sep 2 2012 15:37:04 2021-01-13 00:34:22
  88. FromStats_BitRate : 384000
  89. FromStats_Duration : 01:22:38.048000000
  90. FromStats_FrameCount : 154939
  91. FromStats_StreamSize : 237986304
  92.  
  93. Text
  94. ID : 4
  95. Format : UTF-8
  96. Codec ID : S_TEXT/UTF8
  97. Codec ID/Info : UTF-8 Plain Text
  98. Title : Completa
  99. Language : Portuguese
  100. Default : No
  101. Forced : No
  102.  
  103.  
RAW Paste Data