SHARE
TWEET

4 latas WEB-DL 1080p HEVC

dirtyharrys Jul 16th, 2019 90 Never
Not a member of Pastebin yet? Sign Up, it unlocks many cool features!
  1. General
  2. Unique ID                   : 3380538586628003343398301808546681488 (0x28B116BAC5E1924B42F2215DAAE1290)
  3. Complete name               : E:\4.latas.2019.WEB-DL.1080p.NF.HEVC.x265\4.latas.2019.WEB-DL.1080p.NF.HEVC.x265.mkv
  4. Format                      : Matroska
  5. Format version              : Version 4
  6. File size                   : 3.05 GiB
  7. Duration                    : 1 h 45 min
  8. Overall bit rate            : 4 145 kb/s
  9. Movie name                  : 4 latas WEB-DL / 4 latas WEB-DL
  10. Encoded date                : UTC 2019-07-15 00:26:29
  11. Writing application         : mkvmerge v30.1.0 ('Forever And More') 32-bit
  12. Writing library             : libebml v1.3.6 + libmatroska v1.4.9
  13. Copyright                   : Movies HDs 2019
  14. ARTIST                      : HarshLearner
  15.  
  16. Video
  17. ID                          : 1
  18. Format                      : HEVC
  19. Format/Info                 : High Efficiency Video Coding
  20. Format profile              : Main 10@L4.1@High
  21. Codec ID                    : V_MPEGH/ISO/HEVC
  22. Duration                    : 1 h 45 min
  23. Bit rate                    : 3 503 kb/s
  24. Width                       : 1 920 pixels
  25. Height                      : 800 pixels
  26. Display aspect ratio        : 2.40:1
  27. Frame rate mode             : Constant
  28. Frame rate                  : 24.000 FPS
  29. Color space                 : YUV
  30. Chroma subsampling          : 4:2:0
  31. Bit depth                   : 10 bits
  32. Bits/(Pixel*Frame)          : 0.095
  33. Stream size                 : 2.58 GiB (85%)
  34. Title                       : 4 latas
  35. Language                    : English
  36. Default                     : Yes
  37. Forced                      : No
  38. Color range                 : Limited
  39. Color primaries             : BT.709
  40. Transfer characteristics    : BT.709
  41. Matrix coefficients         : BT.709
  42.  
  43. Audio
  44. ID                          : 2
  45. Format                      : E-AC-3
  46. Format/Info                 : Enhanced AC-3
  47. Commercial name             : Dolby Digital Plus
  48. Codec ID                    : A_EAC3
  49. Duration                    : 1 h 45 min
  50. Bit rate mode               : Constant
  51. Bit rate                    : 640 kb/s
  52. Channel(s)                  : 6 channels
  53. Channel layout              : L R C LFE Ls Rs
  54. Sampling rate               : 48.0 kHz
  55. Frame rate                  : 31.250 FPS (1536 SPF)
  56. Compression mode            : Lossy
  57. Stream size                 : 483 MiB (15%)
  58. Language                    : Spanish
  59. Service kind                : Complete Main
  60. Default                     : Yes
  61. Forced                      : Yes
  62.  
  63. Text #1
  64. ID                          : 3
  65. Format                      : UTF-8
  66. Codec ID                    : S_TEXT/UTF8
  67. Codec ID/Info               : UTF-8 Plain Text
  68. Duration                    : 1 h 41 min
  69. Bit rate                    : 46 b/s
  70. Count of elements           : 1200
  71. Stream size                 : 34.8 KiB (0%)
  72. Language                    : English
  73. Default                     : No
  74. Forced                      : No
  75.  
  76. Text #2
  77. ID                          : 4
  78. Format                      : UTF-8
  79. Codec ID                    : S_TEXT/UTF8
  80. Codec ID/Info               : UTF-8 Plain Text
  81. Duration                    : 1 h 41 min
  82. Bit rate                    : 54 b/s
  83. Count of elements           : 1524
  84. Stream size                 : 40.2 KiB (0%)
  85. Title                       : European
  86. Language                    : Spanish
  87. Default                     : Yes
  88. Forced                      : Yes
  89.  
  90. Text #3
  91. ID                          : 5
  92. Format                      : UTF-8
  93. Codec ID                    : S_TEXT/UTF8
  94. Codec ID/Info               : UTF-8 Plain Text
  95. Duration                    : 1 h 41 min
  96. Bit rate                    : 54 b/s
  97. Count of elements           : 1524
  98. Stream size                 : 40.2 KiB (0%)
  99. Title                       : European SDH
  100. Language                    : Spanish
  101. Default                     : No
  102. Forced                      : No
  103.  
  104. Text #4
  105. ID                          : 6
  106. Format                      : UTF-8
  107. Codec ID                    : S_TEXT/UTF8
  108. Codec ID/Info               : UTF-8 Plain Text
  109. Duration                    : 1 h 44 min
  110. Bit rate                    : 40 b/s
  111. Count of elements           : 965
  112. Stream size                 : 30.9 KiB (0%)
  113. Language                    : French
  114. Default                     : No
  115. Forced                      : No
  116.  
  117. Text #5
  118. ID                          : 7
  119. Format                      : UTF-8
  120. Codec ID                    : S_TEXT/UTF8
  121. Codec ID/Info               : UTF-8 Plain Text
  122. Duration                    : 1 h 44 min
  123. Bit rate                    : 43 b/s
  124. Count of elements           : 1100
  125. Stream size                 : 33.7 KiB (0%)
  126. Title                       : Brazilian
  127. Language                    : Portuguese
  128. Default                     : No
  129. Forced                      : No
  130.  
  131. Text #6
  132. ID                          : 8
  133. Format                      : UTF-8
  134. Codec ID                    : S_TEXT/UTF8
  135. Codec ID/Info               : UTF-8 Plain Text
  136. Duration                    : 1 h 22 min
  137. Bit rate                    : 7 b/s
  138. Count of elements           : 174
  139. Stream size                 : 4.82 KiB (0%)
  140. Title                       : Forced
  141. Language                    : Spanish
  142. Default                     : No
  143. Forced                      : Yes
RAW Paste Data
We use cookies for various purposes including analytics. By continuing to use Pastebin, you agree to our use of cookies as described in the Cookies Policy. OK, I Understand
 
Top