SHARE
TWEET

Untitled

a guest May 15th, 2019 77 Never
Not a member of Pastebin yet? Sign Up, it unlocks many cool features!
  1. $ mediainfo Alvvays\ live\ on\ KCRW\'s\ Morning\ Becomes\ Eclectic-10155196226337815.mp4
  2. General
  3. Complete name                            : Alvvays live on KCRW's Morning Becomes Eclectic-10155196226337815.mp4
  4. Format                                   : MPEG-4
  5. Format profile                           : Base Media
  6. Codec ID                                 : isom (isom/iso2/avc1/mp41)
  7. File size                                : 388 MiB
  8. Duration                                 : 38 min 56 s
  9. Overall bit rate                         : 1 392 kb/s
  10. Writing application                      : Lavf57.83.100
  11.  
  12. Video
  13. ID                                       : 1
  14. Format                                   : AVC
  15. Format/Info                              : Advanced Video Codec
  16. Format profile                           : Main@L3.1
  17. Format settings                          : CABAC / 3 Ref Frames
  18. Format settings, CABAC                   : Yes
  19. Format settings, ReFrames                : 3 frames
  20. Codec ID                                 : avc1
  21. Codec ID/Info                            : Advanced Video Coding
  22. Duration                                 : 38 min 56 s
  23. Bit rate                                 : 1 318 kb/s
  24. Width                                    : 1 280 pixels
  25. Height                                   : 720 pixels
  26. Display aspect ratio                     : 16:9
  27. Frame rate mode                          : Variable
  28. Frame rate                               : 30.000 FPS
  29. Minimum frame rate                       : 29.412 FPS
  30. Maximum frame rate                       : 30.303 FPS
  31. Color space                              : YUV
  32. Chroma subsampling                       : 4:2:0
  33. Bit depth                                : 8 bits
  34. Scan type                                : Progressive
  35. Bits/(Pixel*Frame)                       : 0.048
  36. Stream size                              : 367 MiB (95%)
  37. Writing library                          : x264 core 148
  38. Encoding settings                        : cabac=1 / ref=3 / deblock=1:0:0 / analyse=0x1:0x111 / me=hex / subme=7 / psy=1 / psy_rd=1.00:0.00 / mixed_ref=1 / me_range=16 / chroma_me=1 / trellis=2 / 8x8dct=0 / cqm=0 / deadzone=21,11 / fast_pskip=0 / chroma_qp_offset=4 / threads=8 / lookahead_threads=2 / sliced_threads=0 / nr=0 / decimate=0 / interlaced=0 / bluray_compat=0 / constrained_intra=0 / bframes=4 / b_pyramid=1 / b_adapt=2 / b_bias=0 / direct=1 / weightb=1 / open_gop=0 / weightp=2 / keyint=30 / keyint_min=16 / scenecut=0 / intra_refresh=0 / rc_lookahead=40 / rc=crf / mbtree=1 / crf=25.0 / qcomp=0.45 / qpmin=0 / qpmax=69 / qpstep=4 / vbv_maxrate=2000 / vbv_bufsize=4000 / crf_max=0.0 / nal_hrd=none / filler=0 / ip_ratio=1.40 / aq=1:1.30
  39. Codec configuration box                  : avcC
  40.  
  41. Audio
  42. ID                                       : 2
  43. Format                                   : AAC LC
  44. Format/Info                              : Advanced Audio Codec Low Complexity
  45. Codec ID                                 : mp4a-40-2
  46. Duration                                 : 38 min 56 s
  47. Bit rate mode                            : Constant
  48. Bit rate                                 : 64.3 kb/s
  49. Channel(s)                               : 1 channel
  50. Channel layout                           : C
  51. Sampling rate                            : 48.0 kHz
  52. Frame rate                               : 46.875 FPS (1024 SPF)
  53. Compression mode                         : Lossy
  54. Stream size                              : 17.9 MiB (5%)
  55. Default                                  : Yes
  56. Alternate group                          : 1
RAW Paste Data
We use cookies for various purposes including analytics. By continuing to use Pastebin, you agree to our use of cookies as described in the Cookies Policy. OK, I Understand
Not a member of Pastebin yet?
Sign Up, it unlocks many cool features!
 
Top