SHARE
TWEET

wisdom-solis-1080p.mkv

iMN0 Jan 4th, 2019 17 Never
Not a member of Pastebin yet? Sign Up, it unlocks many cool features!
  1. General
  2. Unique ID                                : 249857564783961297101174731704930842561 (0xBBF8D10BB56CE6D0B28A9A719E7AB7C1)
  3. Complete name                            : wisdom-solis-1080p.mkv
  4. Format                                   : Matroska
  5. Format version                           : Version 4 / Version 2
  6. File size                                : 6.55 GiB
  7. Duration                                 : 1h 31mn
  8. Overall bit rate                         : 10.2 Mbps
  9. Encoded date                             : UTC 2019-01-03 21:51:02
  10. Writing application                      : mkvmerge v9.0.1 ('Obstacles') 64bit
  11. Writing library                          : libebml v1.3.3 + libmatroska v1.4.4
  12.  
  13. Video
  14. ID                                       : 1
  15. Format                                   : AVC
  16. Format/Info                              : Advanced Video Codec
  17. Format profile                           : High@L4.1
  18. Format settings, CABAC                   : Yes
  19. Format settings, ReFrames                : 5 frames
  20. Codec ID                                 : V_MPEG4/ISO/AVC
  21. Duration                                 : 1h 31mn
  22. Bit rate                                 : 8 695 Kbps
  23. Width                                    : 1 920 pixels
  24. Height                                   : 808 pixels
  25. Display aspect ratio                     : 2.40:1
  26. Frame rate mode                          : Constant
  27. Frame rate                               : 24.000 fps
  28. Color space                              : YUV
  29. Chroma subsampling                       : 4:2:0
  30. Bit depth                                : 8 bits
  31. Scan type                                : Progressive
  32. Bits/(Pixel*Frame)                       : 0.234
  33. Stream size                              : 5.58 GiB (85%)
  34. Writing library                          : x264 core 155 r2901 7d0ff22
  35. Encoding settings                        : cabac=1 / ref=5 / deblock=1:0:0 / analyse=0x3:0x113 / me=umh / subme=8 / psy=1 / psy_rd=1.00:0.00 / mixed_ref=1 / me_range=16 / chroma_me=1 / trellis=2 / 8x8dct=1 / cqm=0 / deadzone=21,11 / fast_pskip=0 / chroma_qp_offset=-2 / threads=12 / lookahead_threads=2 / sliced_threads=0 / nr=0 / decimate=1 / interlaced=0 / bluray_compat=0 / constrained_intra=0 / bframes=3 / b_pyramid=2 / b_adapt=1 / b_bias=0 / direct=1 / weightb=1 / open_gop=0 / weightp=2 / keyint=250 / keyint_min=24 / scenecut=40 / intra_refresh=0 / rc_lookahead=50 / rc=2pass / mbtree=1 / bitrate=8695 / ratetol=1.0 / qcomp=0.60 / qpmin=0 / qpmax=69 / qpstep=4 / cplxblur=20.0 / qblur=0.5 / ip_ratio=1.40 / aq=1:1.00
  36. Default                                  : Yes
  37. Forced                                   : No
  38.  
  39. Audio
  40. ID                                       : 2
  41. Format                                   : DTS
  42. Format/Info                              : Digital Theater Systems
  43. Mode                                     : 16
  44. Format settings, Endianness              : Big
  45. Codec ID                                 : A_DTS
  46. Duration                                 : 1h 31mn
  47. Bit rate mode                            : Constant
  48. Bit rate                                 : 1 509 Kbps
  49. Channel(s)                               : 6 channels
  50. Channel positions                        : Front: L C R, Side: L R, LFE
  51. Sampling rate                            : 48.0 KHz
  52. Frame rate                               : 93.750 fps (512 spf)
  53. Bit depth                                : 24 bits
  54. Compression mode                         : Lossy
  55. Stream size                              : 992 MiB (15%)
  56. Language                                 : English
  57. Default                                  : Yes
  58. Forced                                   : No
  59.  
  60. Menu
  61. 00:00:00.000                             : en:00:00:00.000
  62. 00:03:02.625                             : en:00:03:02.625
  63. 00:07:34.625                             : en:00:07:34.625
  64. 00:12:27.625                             : en:00:12:27.625
  65. 00:17:46.833                             : en:00:17:46.833
  66. 00:23:37.000                             : en:00:23:37.000
  67. 00:27:23.000                             : en:00:27:23.000
  68. 00:29:26.875                             : en:00:29:26.875
  69. 00:34:53.458                             : en:00:34:53.458
  70. 00:38:09.500                             : en:00:38:09.500
  71. 00:41:50.458                             : en:00:41:50.458
  72. 00:45:39.292                             : en:00:45:39.292
  73. 00:48:38.625                             : en:00:48:38.625
  74. 00:53:55.125                             : en:00:53:55.125
  75. 01:00:34.625                             : en:01:00:34.625
  76. 01:05:33.458                             : en:01:05:33.458
  77. 01:13:24.208                             : en:01:13:24.208
  78. 01:18:52.958                             : en:01:18:52.958
  79. 01:22:58.250                             : en:01:22:58.250
  80. 01:28:14.625                             : en:01:28:14.625
RAW Paste Data
We use cookies for various purposes including analytics. By continuing to use Pastebin, you agree to our use of cookies as described in the Cookies Policy. OK, I Understand
 
Top