SHARE
TWEET

RoboCop: Unrated Directors Cut BluRay HEVC

dirtyharrys Jul 1st, 2019 74 Never
Not a member of Pastebin yet? Sign Up, it unlocks many cool features!
  1. General
  2. Unique ID                   : 287944317361444250019420781200422028706 (0xD8A00EED8D4ADB33B5BA11BE33FD45A2)
  3. Complete name               : E:\RoboCop.Unrated.Directors.Cut.1987.BluRay.1080p.HEVC.x265\RoboCop.Unrated.Directors.Cut.1987.BluRay.1080p.HEVC.x265.mkv
  4. Format                      : Matroska
  5. Format version              : Version 4
  6. File size                   : 4.97 GiB
  7. Duration                    : 1 h 43 min
  8. Overall bit rate            : 6 888 kb/s
  9. Movie name                  : RoboCop: Unrated Directors Cut BluRay / RoboCop: Unrated Directors Cut BluRay
  10. Encoded date                : UTC 2019-06-22 04:23:18
  11. Writing application         : mkvmerge v30.1.0 ('Forever And More') 32-bit
  12. Writing library             : libebml v1.3.6 + libmatroska v1.4.9
  13. Copyright                   : Movies HDs 2019
  14. ARTIST                      : HarshLearner
  15.  
  16. Video
  17. ID                          : 1
  18. Format                      : HEVC
  19. Format/Info                 : High Efficiency Video Coding
  20. Format profile              : Main 10@L4.1@High
  21. Codec ID                    : V_MPEGH/ISO/HEVC
  22. Duration                    : 1 h 43 min
  23. Bit rate                    : 4 917 kb/s
  24. Width                       : 1 920 pixels
  25. Height                      : 1 036 pixels
  26. Display aspect ratio        : 1.85:1
  27. Frame rate mode             : Constant
  28. Frame rate                  : 23.976 (24000/1001) FPS
  29. Color space                 : YUV
  30. Chroma subsampling          : 4:2:0
  31. Bit depth                   : 10 bits
  32. Bits/(Pixel*Frame)          : 0.103
  33. Stream size                 : 3.55 GiB (71%)
  34. Title                       : RoboCop: Unrated Directors Cut
  35. Language                    : English
  36. Default                     : Yes
  37. Forced                      : No
  38.  
  39. Audio #1
  40. ID                          : 2
  41. Format                      : DTS
  42. Format/Info                 : Digital Theater Systems
  43. Codec ID                    : A_DTS
  44. Duration                    : 1 h 43 min
  45. Bit rate mode               : Constant
  46. Bit rate                    : 1 509 kb/s
  47. Channel(s)                  : 6 channels
  48. Channel layout              : C L R Ls Rs LFE
  49. Sampling rate               : 48.0 kHz
  50. Frame rate                  : 93.750 FPS (512 SPF)
  51. Bit depth                   : 24 bits
  52. Compression mode            : Lossy
  53. Stream size                 : 1.09 GiB (22%)
  54. Language                    : English
  55. Default                     : No
  56. Forced                      : No
  57.  
  58. Audio #2
  59. ID                          : 3
  60. Format                      : AC-3
  61. Format/Info                 : Audio Coding 3
  62. Commercial name             : Dolby Digital
  63. Codec ID                    : A_AC3
  64. Duration                    : 1 h 43 min
  65. Bit rate mode               : Constant
  66. Bit rate                    : 448 kb/s
  67. Channel(s)                  : 6 channels
  68. Channel layout              : L R C LFE Ls Rs
  69. Sampling rate               : 48.0 kHz
  70. Frame rate                  : 31.250 FPS (1536 SPF)
  71. Bit depth                   : 16 bits
  72. Compression mode            : Lossy
  73. Stream size                 : 331 MiB (7%)
  74. Language                    : Spanish
  75. Service kind                : Complete Main
  76. Default                     : Yes
  77. Forced                      : Yes
  78.  
  79. Text #1
  80. ID                          : 4
  81. Format                      : PGS
  82. Muxing mode                 : zlib
  83. Codec ID                    : S_HDMV/PGS
  84. Codec ID/Info               : Picture based subtitle format used on BDs/HD-DVDs
  85. Duration                    : 1 h 36 min
  86. Bit rate                    : 37.2 kb/s
  87. Count of elements           : 2658
  88. Stream size                 : 25.6 MiB (1%)
  89. Language                    : English
  90. Default                     : No
  91. Forced                      : No
  92.  
  93. Text #2
  94. ID                          : 5
  95. Format                      : UTF-8
  96. Codec ID                    : S_TEXT/UTF8
  97. Codec ID/Info               : UTF-8 Plain Text
  98. Duration                    : 1 h 36 min
  99. Bit rate                    : 49 b/s
  100. Count of elements           : 1127
  101. Stream size                 : 34.8 KiB (0%)
  102. Language                    : English
  103. Default                     : No
  104. Forced                      : No
  105.  
  106. Text #3
  107. ID                          : 6
  108. Format                      : UTF-8
  109. Codec ID                    : S_TEXT/UTF8
  110. Codec ID/Info               : UTF-8 Plain Text
  111. Duration                    : 1 h 36 min
  112. Bit rate                    : 54 b/s
  113. Count of elements           : 1317
  114. Stream size                 : 38.6 KiB (0%)
  115. Title                       : English SDH
  116. Language                    : English
  117. Default                     : No
  118. Forced                      : No
  119.  
  120. Text #4
  121. ID                          : 7
  122. Format                      : UTF-8
  123. Codec ID                    : S_TEXT/UTF8
  124. Codec ID/Info               : UTF-8 Plain Text
  125. Duration                    : 1 h 36 min
  126. Bit rate                    : 50 b/s
  127. Count of elements           : 1176
  128. Stream size                 : 35.9 KiB (0%)
  129. Language                    : Spanish
  130. Default                     : Yes
  131. Forced                      : Yes
  132.  
  133. Text #5
  134. ID                          : 8
  135. Format                      : UTF-8
  136. Codec ID                    : S_TEXT/UTF8
  137. Codec ID/Info               : UTF-8 Plain Text
  138. Duration                    : 1 h 33 min
  139. Bit rate                    : 0 b/s
  140. Count of elements           : 33
  141. Stream size                 : 650 Bytes (0%)
  142. Language                    : Spanish
  143. Default                     : No
  144. Forced                      : No
  145.  
  146. Menu
  147. 00:00:00.000                : en:Main Title/New Guy
  148. 00:06:45.113                : en:Ed 209
  149. 00:14:07.555                : en:Hot Pursuit
  150. 00:17:32.551                : en:Mutilation of Murphy
  151. 00:26:40.516                : en:New Kinda Cop
  152. 00:34:28.024                : en:On the Streets
  153. 00:40:32.805                : en:Ocp Showdown
  154. 00:45:15.338                : en:Bad Memories
  155. 00:49:46.650                : en:Self-Discovery
  156. 00:57:48.131                : en:Blast From the Past
  157. 01:01:41.239                : en:Killer Caught
  158. 01:08:25.184                : en:Battle Bots
  159. 01:15:59.889                : en:Un-Masked
  160. 01:22:46.545                : en:Once and for All
  161. 01:33:53.962                : en:Fired
  162. 01:37:04.902                : en:End Credits
RAW Paste Data
We use cookies for various purposes including analytics. By continuing to use Pastebin, you agree to our use of cookies as described in the Cookies Policy. OK, I Understand
Not a member of Pastebin yet?
Sign Up, it unlocks many cool features!
 
Top