SHARE
TWEET

Into the Ashes WEB-DL 720p

dirtyharrys Jul 20th, 2019 66 Never
Not a member of Pastebin yet? Sign Up, it unlocks many cool features!
  1. General
  2. Unique ID                   : 332031589587874101407191376436772227402 (0xF9CAF545302D2F592F1D5065CB4C494A)
  3. Complete name               : E:\V0VCSW50b3RoZUFzaGVz.mkv
  4. Format                      : Matroska
  5. Format version              : Version 4
  6. File size                   : 1.58 GiB
  7. Duration                    : 1 h 37 min
  8. Overall bit rate            : 2 314 kb/s
  9. Movie name                  : Into the Ashes WEB-DL / Into the Ashes WEB-DL
  10. Encoded date                : UTC 2019-07-20 08:28:38
  11. Writing application         : mkvmerge v30.1.0 ('Forever And More') 32-bit
  12. Writing library             : libebml v1.3.6 + libmatroska v1.4.9
  13. Copyright                   : Movies HDs 2019
  14. ARTIST                      : HarshLearner
  15.  
  16. Video
  17. ID                          : 1
  18. Format                      : AVC
  19. Format/Info                 : Advanced Video Codec
  20. Format profile              : High@L3.1
  21. Format settings             : CABAC / 4 Ref Frames
  22. Format settings, CABAC      : Yes
  23. Format settings, ReFrames   : 4 frames
  24. Codec ID                    : V_MPEG4/ISO/AVC
  25. Duration                    : 1 h 37 min
  26. Bit rate mode               : Constant
  27. Bit rate                    : 1 864 kb/s
  28. Nominal bit rate            : 6 000 kb/s
  29. Width                       : 1 280 pixels
  30. Height                      : 544 pixels
  31. Display aspect ratio        : 2.35:1
  32. Original display aspect rat : 2.35:1
  33. Frame rate mode             : Constant
  34. Frame rate                  : 23.976 (24000/1001) FPS
  35. Color space                 : YUV
  36. Chroma subsampling          : 4:2:0
  37. Bit depth                   : 8 bits
  38. Scan type                   : Progressive
  39. Bits/(Pixel*Frame)          : 0.112
  40. Stream size                 : 1.27 GiB (81%)
  41. Title                       : Into the Ashes
  42. Default                     : Yes
  43. Forced                      : No
  44. Color range                 : Limited
  45. Color primaries             : BT.709
  46. Transfer characteristics    : BT.709
  47. Matrix coefficients         : BT.709
  48.  
  49. Audio
  50. ID                          : 2
  51. Format                      : AC-3
  52. Format/Info                 : Audio Coding 3
  53. Commercial name             : Dolby Digital
  54. Codec ID                    : A_AC3
  55. Duration                    : 1 h 37 min
  56. Bit rate mode               : Constant
  57. Bit rate                    : 448 kb/s
  58. Channel(s)                  : 6 channels
  59. Channel layout              : L R C LFE Ls Rs
  60. Sampling rate               : 48.0 kHz
  61. Frame rate                  : 31.250 FPS (1536 SPF)
  62. Bit depth                   : 16 bits
  63. Compression mode            : Lossy
  64. Stream size                 : 312 MiB (19%)
  65. Language                    : English
  66. Service kind                : Complete Main
  67. Default                     : Yes
  68. Forced                      : Yes
  69.  
  70. Text #1
  71. ID                          : 3
  72. Format                      : UTF-8
  73. Codec ID                    : S_TEXT/UTF8
  74. Codec ID/Info               : UTF-8 Plain Text
  75. Duration                    : 1 h 30 min
  76. Bit rate                    : 28 b/s
  77. Count of elements           : 749
  78. Stream size                 : 19.2 KiB (0%)
  79. Language                    : English
  80. Default                     : No
  81. Forced                      : No
  82.  
  83. Text #2
  84. ID                          : 4
  85. Format                      : UTF-8
  86. Codec ID                    : S_TEXT/UTF8
  87. Codec ID/Info               : UTF-8 Plain Text
  88. Duration                    : 1 h 32 min
  89. Bit rate                    : 34 b/s
  90. Count of elements           : 929
  91. Stream size                 : 23.2 KiB (0%)
  92. Title                       : English SDH
  93. Language                    : English
  94. Default                     : No
  95. Forced                      : No
  96.  
  97. Text #3
  98. ID                          : 5
  99. Format                      : UTF-8
  100. Codec ID                    : S_TEXT/UTF8
  101. Codec ID/Info               : UTF-8 Plain Text
  102. Duration                    : 1 h 35 min
  103. Bit rate                    : 27 b/s
  104. Count of elements           : 747
  105. Stream size                 : 19.0 KiB (0%)
  106. Language                    : Spanish
  107. Default                     : Yes
  108. Forced                      : Yes
  109.  
  110. Text #4
  111. ID                          : 6
  112. Format                      : UTF-8
  113. Codec ID                    : S_TEXT/UTF8
  114. Codec ID/Info               : UTF-8 Plain Text
  115. Duration                    : 1 h 31 min
  116. Bit rate                    : 29 b/s
  117. Count of elements           : 725
  118. Stream size                 : 19.6 KiB (0%)
  119. Language                    : French
  120. Default                     : No
  121. Forced                      : No
RAW Paste Data
We use cookies for various purposes including analytics. By continuing to use Pastebin, you agree to our use of cookies as described in the Cookies Policy. OK, I Understand
 
Top