Guest User

Untitled

a guest
Feb 16th, 2020
120
Never
Not a member of Pastebin yet? Sign Up, it unlocks many cool features!
  1. General
  2. Unique ID : 4531466518951470870249161072198627428 (0x368BA8C7B5DD04C619D4AE36ED93064)
  3. Complete name : E:\Knives.Out.2019.1080p.BluRay.DD+7.1.x264-iFT\Knives.Out.2019.1080p.BluRay.DD+7.1.x264-iFT.mkv
  4. Format : Matroska
  5. Format version : Version 4
  6. File size : 16.3 GiB
  7. Duration : 2 h 10 min
  8. Overall bit rate : 17.9 Mb/s
  9. Movie name : Knives Out
  10. Encoded date : UTC 2020-02-15 16:59:47
  11. Writing application : mkvmerge v41.0.0 ('Smarra') 64-bit
  12. Writing library : libebml v1.3.9 + libmatroska v1.5.2
  13.  
  14. Video
  15. ID : 1
  16. Format : AVC
  17. Format/Info : Advanced Video Codec
  18. Format profile : High@L4.1
  19. Format settings : CABAC / 4 Ref Frames
  20. Format settings, CABAC : Yes
  21. Format settings, Reference frames : 4 frames
  22. Codec ID : V_MPEG4/ISO/AVC
  23. Duration : 2 h 10 min
  24. Bit rate : 16.0 Mb/s
  25. Width : 1 920 pixels
  26. Height : 1 038 pixels
  27. Display aspect ratio : 1.85:1
  28. Frame rate mode : Constant
  29. Frame rate : 23.976 (24000/1001) FPS
  30. Color space : YUV
  31. Chroma subsampling : 4:2:0
  32. Bit depth : 8 bits
  33. Scan type : Progressive
  34. Bits/(Pixel*Frame) : 0.335
  35. Stream size : 14.6 GiB (89%)
  36. Writing library : x264 core 159 r2991+49 ~ Encoded by Mocunaman in Portugal
  37. Encoding settings : cabac=1 / ref=4 / deblock=1:-3:-3 / analyse=0x3:0x133 / me=umh / subme=10 / psy=1 / fade_compensate=0.00 / psy_rd=1.05:0.00 / mixed_ref=1 / me_range=32 / chroma_me=1 / trellis=2 / 8x8dct=1 / cqm=0 / deadzone=21,11 / fast_pskip=0 / chroma_qp_offset=-2 / threads=32 / lookahead_threads=8 / sliced_threads=0 / nr=0 / decimate=0 / interlaced=0 / bluray_compat=0 / constrained_intra=0 / fgo=0 / bframes=12 / b_pyramid=2 / b_adapt=2 / b_bias=0 / direct=3 / weightb=1 / open_gop=0 / weightp=2 / keyint=250 / keyint_min=23 / scenecut=40 / intra_refresh=0 / rc=2pass / mbtree=0 / bitrate=16000 / ratetol=1.0 / qcomp=0.65 / qpmin=0:0:0 / qpmax=69:69:69 / qpstep=4 / cplxblur=20.0 / qblur=0.5 / ip_ratio=1.30 / pb_ratio=1.20 / aq=3:0.70 / aq-sensitivity=10.00 / aq-factor=1.00:1.00:1.00 / aq2=0 / aq3=0
  38. Language : English
  39. Default : Yes
  40. Forced : No
  41. Color range : Limited
  42. Matrix coefficients : BT.709
  43.  
  44. Audio #1
  45. ID : 2
  46. Format : E-AC-3
  47. Format/Info : Enhanced AC-3
  48. Commercial name : Dolby Digital Plus
  49. Format profile : Blu-ray Disc
  50. Codec ID : A_EAC3
  51. Duration : 2 h 10 min
  52. Bit rate mode : Constant
  53. Bit rate : 1 536 kb/s
  54. Channel(s) : 8 channels
  55. Channel layout : L R C LFE Ls Rs Lb Rb
  56. Sampling rate : 48.0 kHz
  57. Frame rate : 31.250 FPS (1536 SPF)
  58. Compression mode : Lossy
  59. Stream size : 1.40 GiB (9%)
  60. Title : E-AC3 DD+7.1
  61. Language : English
  62. Service kind : Complete Main
  63. Default : Yes
  64. Forced : No
  65.  
  66. Audio #2
  67. ID : 3
  68. Format : AC-3
  69. Format/Info : Audio Coding 3
  70. Commercial name : Dolby Digital
  71. Codec ID : A_AC3
  72. Duration : 2 h 10 min
  73. Bit rate mode : Constant
  74. Bit rate : 192 kb/s
  75. Channel(s) : 2 channels
  76. Channel layout : L R
  77. Sampling rate : 48.0 kHz
  78. Frame rate : 31.250 FPS (1536 SPF)
  79. Compression mode : Lossy
  80. Stream size : 179 MiB (1%)
  81. Title : Commentary by Rian Johnson Steve Yedlin Noah Segan
  82. Language : English
  83. Service kind : Complete Main
  84. Default : No
  85. Forced : No
  86.  
  87. Audio #3
  88. ID : 4
  89. Format : AC-3
  90. Format/Info : Audio Coding 3
  91. Commercial name : Dolby Digital
  92. Codec ID : A_AC3
  93. Duration : 2 h 10 min
  94. Bit rate mode : Constant
  95. Bit rate : 192 kb/s
  96. Channel(s) : 2 channels
  97. Channel layout : L R
  98. Sampling rate : 48.0 kHz
  99. Frame rate : 31.250 FPS (1536 SPF)
  100. Compression mode : Lossy
  101. Stream size : 179 MiB (1%)
  102. Title : Commentary by Writer/Director Rian Johnson (In-Theater)
  103. Language : English
  104. Service kind : Complete Main
  105. Default : No
  106. Forced : No
  107.  
  108. Text #1
  109. ID : 5
  110. Format : UTF-8
  111. Codec ID : S_TEXT/UTF8
  112. Codec ID/Info : UTF-8 Plain Text
  113. Duration : 2 h 9 min
  114. Bit rate : 88 b/s
  115. Count of elements : 2525
  116. Stream size : 84.1 KiB (0%)
  117. Title : SDH
  118. Language : English
  119. Default : Yes
  120. Forced : No
  121.  
  122. Text #2
  123. ID : 6
  124. Format : UTF-8
  125. Codec ID : S_TEXT/UTF8
  126. Codec ID/Info : UTF-8 Plain Text
  127. Duration : 2 h 2 min
  128. Bit rate : 83 b/s
  129. Count of elements : 2268
  130. Stream size : 74.7 KiB (0%)
  131. Language : English
  132. Default : No
  133. Forced : No
  134.  
  135. Text #3
  136. ID : 7
  137. Format : UTF-8
  138. Codec ID : S_TEXT/UTF8
  139. Codec ID/Info : UTF-8 Plain Text
  140. Duration : 2 h 4 min
  141. Bit rate : 63 b/s
  142. Count of elements : 2022
  143. Stream size : 58.1 KiB (0%)
  144. Language : French
  145. Default : No
  146. Forced : No
  147.  
  148. Menu
  149. 00:00:00.000 : en:Chapter 01
  150. 00:05:28.036 : en:Chapter 02
  151. 00:21:23.115 : en:Chapter 03
  152. 00:31:48.698 : en:Chapter 04
  153. 00:44:30.959 : en:Chapter 05
  154. 00:49:52.364 : en:Chapter 06
  155. 00:54:53.581 : en:Chapter 07
  156. 00:58:39.766 : en:Chapter 08
  157. 01:07:09.775 : en:Chapter 09
  158. 01:12:43.942 : en:Chapter 10
  159. 01:22:30.278 : en:Chapter 11
  160. 01:28:49.741 : en:Chapter 12
  161. 01:34:44.428 : en:Chapter 13
  162. 01:40:47.458 : en:Chapter 14
  163. 01:43:43.634 : en:Chapter 15
  164. 02:01:45.131 : en:Chapter 16
RAW Paste Data