iMN0

The.Transporter.Refueled.2015.1080p.BluRay.DTS.x264-VietHD.mkv

Jul 9th, 2021
95
Never
Not a member of Pastebin yet? Sign Up, it unlocks many cool features!
  1. General
  2. Unique ID : 178779232955520680826534262827914564889 (0x867FA0B8B444077091F80D340C331519)
  3. Complete name : The.Transporter.Refueled.2015.1080p.BluRay.DTS.x264-VietHD.mkv
  4. Format : Matroska
  5. Format version : Version 4
  6. File size : 12.4 GiB
  7. Duration : 1 h 35 min
  8. Overall bit rate : 18.6 Mb/s
  9. Movie name : The.Transporter.Refueled.2015.1080p.BluRay.DTS.x264-VietHD
  10. Encoded date : UTC 2015-11-24 13:37:57
  11. Writing application : mkvmerge v8.5.2 ('Crosses') 64bit
  12. Writing library : libebml v1.3.3 + libmatroska v1.4.4
  13. Cover : Yes
  14. Attachments : Cover.jpg
  15.  
  16. Video
  17. ID : 1
  18. Format : AVC
  19. Format/Info : Advanced Video Codec
  20. Format profile : High@L4.1
  21. Format settings : CABAC / 5 Ref Frames
  22. Format settings, CABAC : Yes
  23. Format settings, Reference frames : 5 frames
  24. Codec ID : V_MPEG4/ISO/AVC
  25. Duration : 1 h 35 min
  26. Bit rate : 17.0 Mb/s
  27. Width : 1 920 pixels
  28. Height : 800 pixels
  29. Display aspect ratio : 2.40:1
  30. Frame rate mode : Constant
  31. Frame rate : 23.976 (24000/1001) FPS
  32. Color space : YUV
  33. Chroma subsampling : 4:2:0
  34. Bit depth : 8 bits
  35. Scan type : Progressive
  36. Bits/(Pixel*Frame) : 0.463
  37. Stream size : 11.4 GiB (92%)
  38. Writing library : x264 core 148 r2638 7599210
  39. Encoding settings : cabac=1 / ref=5 / deblock=1:-3:-3 / analyse=0x3:0x133 / me=umh / subme=10 / psy=1 / psy_rd=0.92:0.00 / mixed_ref=1 / me_range=24 / chroma_me=1 / trellis=2 / 8x8dct=1 / cqm=0 / deadzone=21,11 / fast_pskip=0 / chroma_qp_offset=-2 / threads=12 / lookahead_threads=2 / sliced_threads=0 / nr=0 / decimate=0 / interlaced=0 / bluray_compat=0 / constrained_intra=0 / bframes=9 / b_pyramid=2 / b_adapt=2 / b_bias=0 / direct=3 / weightb=1 / open_gop=0 / weightp=2 / keyint=250 / keyint_min=23 / scenecut=40 / intra_refresh=0 / rc_lookahead=60 / rc=crf / mbtree=0 / crf=17.4 / qcomp=0.70 / qpmin=0 / qpmax=69 / qpstep=4 / vbv_maxrate=62500 / vbv_bufsize=78125 / crf_max=0.0 / nal_hrd=none / filler=0 / ip_ratio=1.30 / pb_ratio=1.20 / aq=3:0.83
  40. Language : English
  41. Default : Yes
  42. Forced : No
  43. Color range : Limited
  44. Matrix coefficients : BT.709
  45.  
  46. Audio
  47. ID : 2
  48. Format : DTS
  49. Format/Info : Digital Theater Systems
  50. Codec ID : A_DTS
  51. Duration : 1 h 35 min
  52. Bit rate mode : Constant
  53. Bit rate : 1 509 kb/s
  54. Channel(s) : 6 channels
  55. Channel layout : C L R Ls Rs LFE
  56. Sampling rate : 48.0 kHz
  57. Frame rate : 93.750 FPS (512 SPF)
  58. Bit depth : 24 bits
  59. Compression mode : Lossy
  60. Stream size : 1.01 GiB (8%)
  61. Language : English
  62. Default : Yes
  63. Forced : No
  64.  
  65. Text #1
  66. ID : 3
  67. Format : UTF-8
  68. Codec ID : S_TEXT/UTF8
  69. Codec ID/Info : UTF-8 Plain Text
  70. Duration : 1 h 35 min
  71. Bit rate : 56 b/s
  72. Count of elements : 1373
  73. Stream size : 39.6 KiB (0%)
  74. Title : SDH
  75. Language : English
  76. Default : No
  77. Forced : No
  78.  
  79. Text #2
  80. ID : 4
  81. Format : UTF-8
  82. Codec ID : S_TEXT/UTF8
  83. Codec ID/Info : UTF-8 Plain Text
  84. Duration : 1 h 35 min
  85. Bit rate : 52 b/s
  86. Count of elements : 1200
  87. Stream size : 36.3 KiB (0%)
  88. Language : English
  89. Default : No
  90. Forced : No
  91.  
  92. Text #3
  93. ID : 5
  94. Format : UTF-8
  95. Codec ID : S_TEXT/UTF8
  96. Codec ID/Info : UTF-8 Plain Text
  97. Duration : 1 h 35 min
  98. Bit rate : 48 b/s
  99. Count of elements : 988
  100. Stream size : 33.8 KiB (0%)
  101. Language : Spanish
  102. Default : No
  103. Forced : No
  104.  
  105. Text #4
  106. ID : 6
  107. Format : UTF-8
  108. Codec ID : S_TEXT/UTF8
  109. Codec ID/Info : UTF-8 Plain Text
  110. Duration : 1 h 26 min
  111. Bit rate : 0 b/s
  112. Count of elements : 25
  113. Stream size : 435 Bytes (0%)
  114. Title : Forced
  115. Language : English
  116. Default : Yes
  117. Forced : Yes
  118.  
  119. Text #5
  120. ID : 7
  121. Format : UTF-8
  122. Codec ID : S_TEXT/UTF8
  123. Codec ID/Info : UTF-8 Plain Text
  124. Duration : 1 h 29 min
  125. Bit rate : 48 b/s
  126. Count of elements : 1041
  127. Stream size : 31.7 KiB (0%)
  128. Language : Romanian
  129. Default : No
  130. Forced : No
  131.  
  132. Menu
  133. 00:00:00.000 : en:Chapter 01
  134. 00:03:29.042 : en:Chapter 02
  135. 00:06:43.278 : en:Chapter 03
  136. 00:11:22.599 : en:Chapter 04
  137. 00:15:01.651 : en:Chapter 05
  138. 00:20:21.512 : en:Chapter 06
  139. 00:24:49.905 : en:Chapter 07
  140. 00:27:03.664 : en:Chapter 08
  141. 00:29:29.643 : en:Chapter 09
  142. 00:32:56.600 : en:Chapter 10
  143. 00:35:48.605 : en:Chapter 11
  144. 00:37:35.879 : en:Chapter 12
  145. 00:41:53.845 : en:Chapter 13
  146. 00:48:09.887 : en:Chapter 14
  147. 00:52:44.536 : en:Chapter 15
  148. 00:57:42.793 : en:Chapter 16
  149. 01:01:01.658 : en:Chapter 17
  150. 01:06:43.541 : en:Chapter 18
  151. 01:10:50.204 : en:Chapter 19
  152. 01:13:06.048 : en:Chapter 20
  153. 01:18:27.244 : en:Chapter 21
  154. 01:20:18.397 : en:Chapter 22
  155. 01:21:53.408 : en:Chapter 23
  156. 01:24:16.885 : en:Chapter 24
  157. 01:27:00.132 : en:Chapter 25
  158. 01:28:45.070 : en:Chapter 26
  159. 01:30:07.110 : en:Chapter 27
RAW Paste Data