GrabHD

Untitled

Feb 19th, 2020
96
Never
Not a member of Pastebin yet? Sign Up, it unlocks many cool features!
  1. General
  2. Unique ID : 8957137678799559988590363035099806629 (0x6BD14FBCCBF3977913BCEAEC7F53BA5)
  3. Complete name : E:Video111Knives.Out.2019.D.MVO.AVO.BDRip.720p.seleZen.mkv
  4. Format : Matroska
  5. Format version : Version 4
  6. File size : 7.84 GiB
  7. Duration : 2 h 10 min
  8. Overall bit rate : 8 622 kb/s
  9. Movie name : Knives Out 2019 from селезень
  10. Encoded date : UTC 2020-02-19 19:41:25
  11. Writing application : mkvmerge v40.0.0 ('Old Town Road + Pony') 64-bit
  12. Writing library : libebml v1.3.9 + libmatroska v1.5.2
  13.  
  14. Video
  15. ID : 1
  16. Format : AVC
  17. Format/Info : Advanced Video Codec
  18. Format profile : High@L4.1
  19. Format settings : CABAC / 9 Ref Frames
  20. Format settings, CABAC : Yes
  21. Format settings, Reference : 9 frames
  22. Codec ID : V_MPEG4/ISO/AVC
  23. Duration : 2 h 10 min
  24. Bit rate : 5 000 kb/s
  25. Width : 1 280 pixels
  26. Height : 692 pixels
  27. Display aspect ratio : 1.85:1
  28. Frame rate mode : Constant
  29. Frame rate : 23.976 (24000/1001) FPS
  30. Color space : YUV
  31. Chroma subsampling : 4:2:0
  32. Bit depth : 8 bits
  33. Scan type : Progressive
  34. Bits/(Pixel*Frame) : 0.235
  35. Stream size : 4.55 GiB (58%)
  36. Title : Encoded by seleZen
  37. Writing library : x264 core 142 r2431+42 c69a006 tMod [8-bit@all X86_64]
  38. Encoding settings : cabac=1 / ref=9 / deblock=1:-2:-2 / analyse=0x3:0x133 / me=umh / subme=10 / psy=1 / fade_compensate=0.00 / psy_rd=1.00:0.00 / mixed_ref=1 / me_range=32 / chroma_me=1 / trellis=2 / 8x8dct=1 / cqm=0 / deadzone=21,11 / fast_pskip=0 / chroma_qp_offset=-2 / threads=24 / lookahead_threads=4 / sliced_threads=0 / nr=0 / decimate=0 / interlaced=0 / bluray_compat=0 / constrained_intra=0 / fgo=0 / bframes=8 / b_pyramid=2 / b_adapt=2 / b_bias=0 / direct=3 / weightb=1 / open_gop=0 / weightp=2 / keyint=240 / keyint_min=23 / scenecut=40 / intra_refresh=0 / rc_lookahead=50 / rc=2pass / mbtree=0 / bitrate=5000 / ratetol=1.0 / qcomp=0.60 / qpmin=0:0:0 / qpmax=51:51:51 / qpstep=4 / cplxblur=20.0 / qblur=0.5 / vbv_maxrate=50000 / vbv_bufsize=62500 / nal_hrd=none / filler=0 / ip_ratio=1.40 / pb_ratio=1.30 / aq=3:0.80 / aq-sensitivity=10.00 / aq-factor=1.00:1.00:1.00 / aq2=0 / aq3=0
  39. Language : English
  40. Default : Yes
  41. Forced : No
  42.  
  43. Audio #1
  44. ID : 2
  45. Format : AC-3
  46. Format/Info : Audio Coding 3
  47. Commercial name : Dolby Digital
  48. Codec ID : A_AC3
  49. Duration : 2 h 10 min
  50. Bit rate mode : Constant
  51. Bit rate : 384 kb/s
  52. Channel(s) : 6 channels
  53. Channel layout : L R C LFE Ls Rs
  54. Sampling rate : 48.0 kHz
  55. Frame rate : 31.250 FPS (1536 SPF)
  56. Compression mode : Lossy
  57. Stream size : 358 MiB (4%)
  58. Title : iTunes
  59. Language : Russian
  60. Service kind : Complete Main
  61. Default : Yes
  62. Forced : Yes
  63.  
  64. Audio #2
  65. ID : 3
  66. Format : AC-3
  67. Format/Info : Audio Coding 3
  68. Commercial name : Dolby Digital
  69. Codec ID : A_AC3
  70. Duration : 2 h 10 min
  71. Bit rate mode : Constant
  72. Bit rate : 448 kb/s
  73. Channel(s) : 6 channels
  74. Channel layout : L R C LFE Ls Rs
  75. Sampling rate : 48.0 kHz
  76. Frame rate : 31.250 FPS (1536 SPF)
  77. Compression mode : Lossy
  78. Stream size : 417 MiB (5%)
  79. Title : MVO [HDRezka Studio]
  80. Language : Russian
  81. Service kind : Complete Main
  82. Default : No
  83. Forced : No
  84.  
  85. Audio #3
  86. ID : 4
  87. Format : AC-3
  88. Format/Info : Audio Coding 3
  89. Commercial name : Dolby Digital
  90. Codec ID : A_AC3
  91. Duration : 2 h 10 min
  92. Bit rate mode : Constant
  93. Bit rate : 640 kb/s
  94. Channel(s) : 6 channels
  95. Channel layout : L R C LFE Ls Rs
  96. Sampling rate : 48.0 kHz
  97. Frame rate : 31.250 FPS (1536 SPF)
  98. Compression mode : Lossy
  99. Stream size : 596 MiB (7%)
  100. Title : AVO [Kyberpunk]
  101. Language : Russian
  102. Service kind : Complete Main
  103. Default : No
  104. Forced : No
  105.  
  106. Audio #4
  107. ID : 5
  108. Format : DTS
  109. Format/Info : Digital Theater Systems
  110. Codec ID : A_DTS
  111. Duration : 2 h 10 min
  112. Bit rate mode : Constant
  113. Bit rate : 1 509 kb/s
  114. Channel(s) : 6 channels
  115. Channel layout : C L R Ls Rs LFE
  116. Sampling rate : 48.0 kHz
  117. Frame rate : 93.750 FPS (512 SPF)
  118. Bit depth : 24 bits
  119. Compression mode : Lossy
  120. Stream size : 1.37 GiB (17%)
  121. Title : AVO [Kyberpunk]
  122. Language : Russian
  123. Default : No
  124. Forced : No
  125.  
  126. Audio #5
  127. ID : 6
  128. Format : AC-3
  129. Format/Info : Audio Coding 3
  130. Commercial name : Dolby Digital
  131. Codec ID : A_AC3
  132. Duration : 2 h 10 min
  133. Bit rate mode : Constant
  134. Bit rate : 640 kb/s
  135. Channel(s) : 6 channels
  136. Channel layout : L R C LFE Ls Rs
  137. Sampling rate : 48.0 kHz
  138. Frame rate : 31.250 FPS (1536 SPF)
  139. Compression mode : Lossy
  140. Stream size : 596 MiB (7%)
  141. Title : Original
  142. Language : English
  143. Service kind : Complete Main
  144. Default : No
  145. Forced : No
  146.  
  147. Text #1
  148. ID : 7
  149. Format : UTF-8
  150. Codec ID : S_TEXT/UTF8
  151. Codec ID/Info : UTF-8 Plain Text
  152. Duration : 2 h 4 min
  153. Bit rate : 1 b/s
  154. Count of elements : 38
  155. Stream size : 1.69 KiB (0%)
  156. Title : Forced
  157. Language : Russian
  158. Default : Yes
  159. Forced : Yes
  160.  
  161. Text #2
  162. ID : 8
  163. Format : UTF-8
  164. Codec ID : S_TEXT/UTF8
  165. Codec ID/Info : UTF-8 Plain Text
  166. Duration : 2 h 4 min
  167. Bit rate : 126 b/s
  168. Count of elements : 1841
  169. Stream size : 115 KiB (0%)
  170. Title : Full
  171. Language : Russian
  172. Default : No
  173. Forced : No
  174.  
  175. Text #3
  176. ID : 9
  177. Format : UTF-8
  178. Codec ID : S_TEXT/UTF8
  179. Codec ID/Info : UTF-8 Plain Text
  180. Duration : 2 h 2 min
  181. Bit rate : 85 b/s
  182. Count of elements : 2616
  183. Stream size : 76.2 KiB (0%)
  184. Title : Full
  185. Language : English
  186. Default : No
  187. Forced : No
  188.  
  189. Text #4
  190. ID : 10
  191. Format : UTF-8
  192. Codec ID : S_TEXT/UTF8
  193. Codec ID/Info : UTF-8 Plain Text
  194. Duration : 2 h 2 min
  195. Bit rate : 89 b/s
  196. Count of elements : 2795
  197. Stream size : 79.8 KiB (0%)
  198. Title : SDH
  199. Language : English
  200. Default : No
  201. Forced : No
  202.  
  203. Menu
  204. 00:00:00.000 : en:Chapter 1
  205. 00:05:28.036 : en:Chapter 2
  206. 00:21:23.115 : en:Chapter 3
  207. 00:31:48.698 : en:Chapter 4
  208. 00:44:30.960 : en:Chapter 5
  209. 00:49:52.364 : en:Chapter 6
  210. 00:54:53.582 : en:Chapter 7
  211. 00:58:39.766 : en:Chapter 8
  212. 01:07:09.776 : en:Chapter 9
  213. 01:12:43.943 : en:Chapter 10
  214. 01:22:30.279 : en:Chapter 11
  215. 01:28:49.741 : en:Chapter 12
  216. 01:34:44.429 : en:Chapter 13
  217. 01:40:47.458 : en:Chapter 14
  218. 01:43:43.634 : en:Chapter 15
  219. 02:01:45.131 : en:Chapter 16
RAW Paste Data