GrabHD

Untitled

Apr 13th, 2020
14
Never
Not a member of Pastebin yet? Sign Up, it unlocks many cool features!
  1. Общее
  2. Уникальный идентификатор : 83430733609548820916455184056610013434 (0x3EC42CC09D9F113DE127EE62B7F940FA)
  3. Полное имя : R:Doctor Sleep (2019) BDRip 1080p [HEVC] (1).mkv
  4. Формат : Matroska
  5. Версия формата : Version 4 / Version 2
  6. Размер файла : 10,7 Гбайт
  7. Продолжительность : 3 ч. 0 м.
  8. Общий поток : 8508 Кбит/сек
  9. Дата кодирования : UTC 2020-04-13 16:54:06
  10. Программа кодирования : mkvmerge v28.2.0 ('The Awakening') 64-bit
  11. Библиотека кодирования : libebml v1.3.6 + libmatroska v1.4.9
  12. Обложка : Yes
  13. Attachments : cover.jpg
  14.  
  15. Видео
  16. Идентификатор : 1
  17. Формат : HEVC
  18. Формат/Информация : High Efficiency Video Coding
  19. Профиль формата : Main 10@L4.1@High
  20. Идентификатор кодека : V_MPEGH/ISO/HEVC
  21. Продолжительность : 3 ч. 0 м.
  22. Битрейт : 7161 Кбит/сек
  23. Ширина : 1920 пикселей
  24. Высота : 1040 пикселей
  25. Соотношение сторон : 1,85:1
  26. Режим частоты кадров : Постоянный
  27. Частота кадров : 23,976 (23976/1000) кадра/сек
  28. Частота кадров в оригинале : 23,976 (24000/1001) кадра/сек
  29. Цветовое пространство : YUV
  30. Субдискретизация насыщенности : 4:2:0
  31. Битовая глубина : 10 бит
  32. Бит/(Пиксели*Кадры) : 0.150
  33. Размер потока : 9,01 Гбайт (84%)
  34. Библиотека кодирования : x265 3.2.1+1-b5c86a64bbbe:[Windows][MSVC 1923][64 bit] 10bit
  35. Настройки программы : cpuid=1111039 / frame-threads=3 / numa-pools=12 / wpp / no-pmode / no-pme / no-psnr / no-ssim / log-level=2 / input-csp=1 / input-res=1920x1040 / interlace=0 / total-frames=250392 / level-idc=41 / high-tier=1 / uhd-bd=0 / ref=5 / no-allow-non-conformance / no-repeat-headers / annexb / no-aud / no-hrd / info / hash=0 / no-temporal-layers / open-gop / min-keyint=23 / keyint=240 / gop-lookahead=0 / bframes=12 / b-adapt=2 / b-pyramid / bframe-bias=0 / rc-lookahead=60 / lookahead-slices=4 / scenecut=40 / radl=0 / no-splice / no-intra-refresh / ctu=32 / min-cu-size=8 / rect / amp / max-tu-size=32 / tu-inter-depth=4 / tu-intra-depth=4 / limit-tu=1 / rdoq-level=2 / dynamic-rd=0.00 / no-ssim-rd / signhide / no-tskip / nr-intra=0 / nr-inter=0 / no-constrained-intra / no-strong-intra-smoothing / max-merge=4 / limit-refs=2 / limit-modes / me=3 / subme=7 / merange=57 / temporal-mvp / no-hme / weightp / weightb / no-analyze-src-pics / deblock=-3:-3 / no-sao / no-sao-non-deblock / rd=6 / selective-sao=0 / no-early-skip / no-rskip / no-fast-intra / no-tskip-fast / no-cu-lossless / no-b-intra / no-splitrd-skip / rdpenalty=0 / psy-rd=2.00 / psy-rdoq=1.00 / no-rd-refine / no-lossless / cbqpoffs=0 / crqpoffs=0 / rc=crf / crf=20.0 / qcomp=0.65 / qpstep=4 / stats-write=0 / stats-read=0 / vbv-maxrate=50000 / vbv-bufsize=50000 / vbv-init=0.9 / crf-max=0.0 / crf-min=0.0 / ipratio=1.40 / pbratio=1.30 / aq-mode=1 / aq-strength=1.00 / no-cutree / zone-count=0 / no-strict-cbr / qg-size=32 / no-rc-grain / qpmax=69 / qpmin=0 / no-const-vbv / sar=1 / overscan=0 / videoformat=5 / range=0 / colorprim=1 / transfer=1 / colormatrix=1 / chromaloc=0 / display-window=0 / cll=0,0 / min-luma=0 / max-luma=1023 / log2-max-poc-lsb=8 / vui-timing-info / vui-hrd-info / slices=1 / no-opt-qp-pps / no-opt-ref-list-length-pps / no-multi-pass-opt-rps / scenecut-bias=0.05 / no-opt-cu-delta-qp / no-aq-motion / no-hdr / no-hdr-opt / no-dhdr10-opt / no-idr-recovery-sei / analysis-reuse-level=5 / scale-factor=0 / refine-intra=0 / refine-inter=0 / refine-mv=1 / refine-ctu-distortion=0 / no-limit-sao / ctu-info=0 / no-lowpass-dct / refine-analysis-type=0 / copy-pic=1 / max-ausize-factor=1.0 / no-dynamic-refine / no-single-sei / no-hevc-aq / no-svt / no-field / qp-adaptation-range=1.00
  36. Default : Да
  37. Forced : Нет
  38. Цветовой диапазон : Limited
  39. Основные цвета : BT.709
  40. Характеристики трансфера : BT.709
  41. Коэффициенты матрицы : BT.709
  42.  
  43. Аудио #1
  44. Идентификатор : 2
  45. Формат : AC-3
  46. Формат/Информация : Audio Coding 3
  47. Идентификатор кодека : A_AC3
  48. Продолжительность : 3 ч. 0 м.
  49. Вид битрейта : Постоянный
  50. Битрейт : 448 Кбит/сек
  51. Каналы : 6 каналов
  52. Расположение каналов : Front: L C R, Side: L R, LFE
  53. Частота : 48,0 КГц
  54. Частота кадров : 31,250 кадров/сек (1536 SPF)
  55. Битовая глубина : 16 бит
  56. Метод сжатия : С потерями
  57. Размер потока : 578 Мбайт (5%)
  58. Заголовок : Dub
  59. Язык : Russian
  60. ServiceKind/Strin : Complete Main
  61. Default : Да
  62. Forced : Нет
  63.  
  64. Аудио #2
  65. Идентификатор : 3
  66. Формат : AC-3
  67. Формат/Информация : Audio Coding 3
  68. Идентификатор кодека : A_AC3
  69. Продолжительность : 3 ч. 0 м.
  70. Вид битрейта : Постоянный
  71. Битрейт : 448 Кбит/сек
  72. Каналы : 6 каналов
  73. Расположение каналов : Front: L C R, Side: L R, LFE
  74. Частота : 48,0 КГц
  75. Частота кадров : 31,250 кадров/сек (1536 SPF)
  76. Битовая глубина : 16 бит
  77. Метод сжатия : С потерями
  78. Размер потока : 578 Мбайт (5%)
  79. Заголовок : AVO В.Замез
  80. Язык : Russian
  81. ServiceKind/Strin : Complete Main
  82. Default : Нет
  83. Forced : Нет
  84.  
  85. Аудио #3
  86. Идентификатор : 4
  87. Формат : AC-3
  88. Формат/Информация : Audio Coding 3
  89. Идентификатор кодека : A_AC3
  90. Продолжительность : 3 ч. 0 м.
  91. Вид битрейта : Постоянный
  92. Битрейт : 448 Кбит/сек
  93. Каналы : 6 каналов
  94. Расположение каналов : Front: L C R, Side: L R, LFE
  95. Частота : 48,0 КГц
  96. Частота кадров : 31,250 кадров/сек (1536 SPF)
  97. Битовая глубина : 16 бит
  98. Метод сжатия : С потерями
  99. Размер потока : 578 Мбайт (5%)
  100. Заголовок : Original
  101. Язык : English
  102. ServiceKind/Strin : Complete Main
  103. Default : Нет
  104. Forced : Нет
  105.  
  106. Текст #1
  107. Идентификатор : 5
  108. Формат : UTF-8
  109. Идентификатор кодека : S_TEXT/UTF8
  110. Идентификатор кодека/Информация : UTF-8 Plain Text
  111. Продолжительность : 2 ч. 24 м.
  112. Битрейт : 1 бит/сек
  113. ElementCount : 55
  114. Размер потока : 2,03 Кбайт (0%)
  115. Заголовок : Forced
  116. Язык : Russian
  117. Default : Да
  118. Forced : Нет
  119.  
  120. Текст #2
  121. Идентификатор : 6
  122. Формат : UTF-8
  123. Идентификатор кодека : S_TEXT/UTF8
  124. Идентификатор кодека/Информация : UTF-8 Plain Text
  125. Продолжительность : 2 ч. 53 м.
  126. Битрейт : 63 бит/сек
  127. ElementCount : 2006
  128. Размер потока : 81,2 Кбайт (0%)
  129. Заголовок : Full
  130. Язык : Russian
  131. Default : Нет
  132. Forced : Нет
  133.  
  134. Текст #3
  135. Идентификатор : 7
  136. Формат : UTF-8
  137. Идентификатор кодека : S_TEXT/UTF8
  138. Идентификатор кодека/Информация : UTF-8 Plain Text
  139. Продолжительность : 2 ч. 55 м.
  140. Битрейт : 41 бит/сек
  141. ElementCount : 2050
  142. Размер потока : 52,8 Кбайт (0%)
  143. Заголовок : full
  144. Язык : English
  145. Default : Нет
  146. Forced : Нет
  147.  
  148. Текст #4
  149. Идентификатор : 8
  150. Формат : UTF-8
  151. Идентификатор кодека : S_TEXT/UTF8
  152. Идентификатор кодека/Информация : UTF-8 Plain Text
  153. Продолжительность : 2 ч. 55 м.
  154. Битрейт : 69 бит/сек
  155. ElementCount : 2356
  156. Размер потока : 89,0 Кбайт (0%)
  157. Заголовок : SDH-Colored
  158. Язык : English
  159. Default : Нет
  160. Forced : Нет
  161.  
  162. Меню
  163. 00:00:00.000 : :Chapter 01
  164. 00:08:29.300 : :Chapter 02
  165. 00:16:39.623 : :Chapter 03
  166. 00:28:01.638 : :Chapter 04
  167. 00:36:45.453 : :Chapter 05
  168. 00:44:42.763 : :Chapter 06
  169. 00:53:24.367 : :Chapter 07
  170. 01:03:41.484 : :Chapter 08
  171. 01:13:39.456 : :Chapter 09
  172. 01:22:05.962 : :Chapter 10
  173. 01:28:56.331 : :Chapter 11
  174. 01:37:13.244 : :Chapter 12
  175. 01:46:31.593 : :Chapter 13
  176. 01:55:11.529 : :Chapter 14
  177. 02:06:20.322 : :Chapter 15
  178. 02:14:58.590 : :Chapter 16
  179. 02:21:33.401 : :Chapter 17
  180. 02:31:58.359 : :Chapter 18
  181. 02:42:26.403 : :Chapter 19
  182. 02:54:07.437 : :Chapter 20
  183. 03:00:14.094 : :Chapter 21
RAW Paste Data