GrabHD

Untitled

Feb 19th, 2020
114
Never
Not a member of Pastebin yet? Sign Up, it unlocks many cool features!
  1. Общее
  2. Уникальный идентификатор : 221341458963541553925551420388194205618 (0xA684D07AE50B2402BDA54300192D3FB2)
  3. Полное имя : D:\Раздача\Les.2018.WEB-DLRip-AVC.grab777 (1).mkv
  4. Формат : Matroska
  5. Версия формата : Version 4 / Version 2
  6. Размер файла : 2,56 Гбайт
  7. Продолжительность : 1 ч. 40 м.
  8. Общий поток : 3633 Кбит/сек
  9. Название фильма : Лес.2018.WEB-DLRip-AVC.grab777
  10. Дата кодирования : UTC 2020-02-19 23:37:59
  11. Программа кодирования : mkvmerge v7.3.0 ('Nouages') 64bit built on Oct 22 2014 18:53:34
  12. Библиотека кодирования : libebml v1.3.0 + libmatroska v1.4.1
  13.  
  14. Видео
  15. Идентификатор : 1
  16. Формат : AVC
  17. Формат/Информация : Advanced Video Codec
  18. Профиль формата : High@L4.1
  19. Настройки формата : CABAC / 12 Ref Frames
  20. Параметр CABAC формата : Да
  21. Параметр RefFrames формата : 12 кадров
  22. Идентификатор кодека : V_MPEG4/ISO/AVC
  23. Продолжительность : 1 ч. 40 м.
  24. Битрейт : 3248 Кбит/сек
  25. Ширина : 1024 пикселя
  26. Высота : 432 пикселя
  27. Соотношение сторон : 2,40:1
  28. Соотношение сторон в оригинале : 2,40:1
  29. Режим частоты кадров : Постоянный
  30. Частота кадров : 24,000 кадра/сек
  31. Цветовое пространство : YUV
  32. Субдискретизация насыщенности : 4:2:0
  33. Битовая глубина : 8 бит
  34. Тип развёртки : Прогрессивная
  35. Бит/(Пиксели*Кадры) : 0.306
  36. Размер потока : 2,29 Гбайт (89%)
  37. Заголовок : Rip by grab777
  38. Библиотека кодирования : x264 core 148 r2665M a01e339
  39. Настройки программы : cabac=1 / ref=12 / deblock=1:-2:-2 / analyse=0x3:0x133 / me=umh / subme=10 / psy=1 / psy_rd=1.00:0.15 / mixed_ref=1 / me_range=32 / chroma_me=1 / trellis=2 / 8x8dct=1 / cqm=0 / deadzone=21,11 / fast_pskip=0 / chroma_qp_offset=-3 / threads=5 / lookahead_threads=1 / sliced_threads=0 / nr=0 / decimate=1 / interlaced=0 / bluray_compat=0 / constrained_intra=0 / bframes=10 / b_pyramid=2 / b_adapt=2 / b_bias=0 / direct=3 / weightb=1 / open_gop=0 / weightp=2 / keyint=240 / keyint_min=24 / scenecut=40 / intra_refresh=0 / rc_lookahead=40 / rc=crf / mbtree=1 / crf=17.0 / qcomp=0.90 / qpmin=3 / qpmax=69 / qpstep=4 / vbv_maxrate=40000 / vbv_bufsize=30000 / crf_max=31.0 / nal_hrd=none / filler=0 / ip_ratio=1.40 / aq=1:0.00
  40. Default : Да
  41. Forced : Нет
  42. Цветовой диапазон : Limited
  43. Основные цвета : BT.709
  44. Характеристики трансфера : BT.709
  45. Коэффициенты матрицы : BT.709
  46.  
  47. Аудио
  48. Идентификатор : 2
  49. Формат : AC-3
  50. Формат/Информация : Audio Coding 3
  51. Параметр Endianness формата : Big
  52. Идентификатор кодека : A_AC3
  53. Продолжительность : 1 ч. 40 м.
  54. Вид битрейта : Постоянный
  55. Битрейт : 384 Кбит/сек
  56. Каналы : 6 каналов
  57. Расположение каналов : Front: L C R, Side: L R, LFE
  58. Частота : 48,0 КГц
  59. Частота кадров : 31,250 кадров/сек (1536 SPF)
  60. Битовая глубина : 16 бит
  61. Метод сжатия : С потерями
  62. Размер потока : 277 Мбайт (11%)
  63. Заголовок : iTunes
  64. Язык : Russian
  65. ServiceKind/String : Complete Main
  66. Default : Да
  67. Forced : Нет
  68.  
  69. Меню
  70. 00:00:00.000 : :Глава 1
  71. 00:12:46.000 : :Глава 2
  72. 00:25:46.559 : :Глава 3
  73. 00:37:34.907 : :Глава 4
  74. 00:49:46.867 : :Глава 5
  75. 01:02:10.632 : :Глава 6
  76. 01:14:34.000 : :Глава 7
  77. 01:23:02.047 : :Глава 8
  78. 01:30:42.473 : :Глава 9
  79. 01:36:01.230 : :Глава 10
RAW Paste Data