Advertisement
hungdaita

Den of Thieves 2018 Unrated 1080p BluRay DTS x264-DON

Apr 21st, 2018
834
Never
Not a member of Pastebin yet? Sign Up, it unlocks many cool features!
  1. #AVS
  2.  
  3. FFVideoSource("C:\Users\hungdaita\Desktop\Encode\Source.mkv").Crop(0,140,0,-140)
  4. fix1=FillMargins(0,0,0,1).bbmod(1,2,0,0).f3kdb(grainY=10, dynamic_grain=true)
  5. fix2=f3kdb(grainY=10, dynamic_grain=true)
  6. fix3=bbmod(2,2,0,0)
  7. fix4=bbmod(2,2,0,0).f3kdb(grainY=10, dynamic_grain=true)
  8. ConditionalFilter(last, fix1, "SceneType", "<", "1")
  9. ConditionalFilter(last, fix2, "SceneType", "<", "2")
  10. ConditionalFilter(last, fix3, "SceneType", "<", "3")
  11. ConditionalFilter(last, fix4, "SceneType", "<", "4")
  12. ConditionalReader("fix.txt", "SceneType")
  13.  
  14. #fix.txt
  15.  
  16. type int
  17. default 0
  18.  
  19. R 25 588 1
  20. R 680 1095 2
  21. R 13590 25244 3
  22. R 25245 25280 4
  23. R 25281 31885 3
  24. R 39510 42122 3
  25. R 49676 55919 3
  26. R 61800 63096 3
  27. R 73147 74440 3
  28. R 79631 81840 3
  29. R 98951 100149 3
  30. R 111959 114666 3
  31. R 193360 193415 2
  32. R 213915 213960 2
  33.  
  34. #Media Info Encode Without Audio:
  35.  
  36. General
  37. Complete name : C:\Users\hungdaita\Desktop\Encode\1080p-DON.mkv
  38. Format : Matroska
  39. Format version : Version 2 / Version 2
  40. File size : 17.1 GiB
  41. Duration : 2 h 28 min
  42. Overall bit rate : 16.5 Mb/s
  43. Writing application : x264 r2867+82 a249126 t_mod_Custom_2 [8-bit@all X86_64]
  44. Writing library : Haali Matroska Writer b0
  45.  
  46. Video
  47. ID : 1
  48. Format : AVC
  49. Format/Info : Advanced Video Codec
  50. Format profile : High@L4.1
  51. Format settings : CABAC / 5 Ref Frames
  52. Format settings, CABAC : Yes
  53. Format settings, RefFrames : 5 frames
  54. Codec ID : V_MPEG4/ISO/AVC
  55. Duration : 2 h 28 min
  56. Bit rate : 16.1 Mb/s
  57. Width : 1 920 pixels
  58. Height : 800 pixels
  59. Display aspect ratio : 2.40:1
  60. Frame rate mode : Constant
  61. Frame rate : 23.976 (24000/1001) FPS
  62. Color space : YUV
  63. Chroma subsampling : 4:2:0
  64. Bit depth : 8 bits
  65. Scan type : Progressive
  66. Bits/(Pixel*Frame) : 0.438
  67. Stream size : 16.8 GiB (98%)
  68. Writing library : x264 core 155 r2867+82 a249126 t_mod_Custom_2 [8-bit@all X86_64]
  69. Encoding settings : cabac=1 / ref=5 / deblock=1:-3:-3 / analyse=0x3:0x133 / me=umh / subme=11 / psy=1 / fade_compensate=0.00 / psy_rd=1.00:0.00 / mixed_ref=1 / me_range=48 / chroma_me=1 / trellis=2 / 8x8dct=1 / cqm=0 / deadzone=21,11 / fast_pskip=0 / chroma_qp_offset=-2 / threads=12 / lookahead_threads=2 / sliced_threads=0 / nr=0 / decimate=0 / interlaced=0 / bluray_compat=0 / constrained_intra=0 / fgo=0 / bframes=8 / b_pyramid=2 / b_adapt=2 / b_bias=0 / direct=3 / weightb=1 / open_gop=0 / weightp=2 / keyint=250 / keyint_min=23 / scenecut=40 / intra_refresh=0 / rc_lookahead=60 / rc=crf / mbtree=0 / crf=17.9000 / qcomp=0.65 / qpmin=0:0:0 / qpmax=69:69:69 / qpstep=4 / vbv_maxrate=62500 / vbv_bufsize=78125 / crf_max=0.0 / nal_hrd=none / filler=0 / ip_ratio=1.30 / pb_ratio=1.20 / aq=3:0.80 / aq-sensitivity=10.00 / aq-factor=1.00:1.00:1.00 / aq2=0 / aq3=0 / zones=680,1095,crf=15/1150,10398,crf=16.5/25245,25280,crf=15.5/34695,38927,crf=16/85907,86394,crf=17/86468,89472,crf=17.5/105428,106608,crf=16/106989,107016,crf=17/180953,181057,crf=16/193360,193415,crf=15/198363,201525,crf=16/213915,213960,crf=15
  70. Language : English
  71. Default : Yes
  72. Forced : No
  73. Color range : Limited
  74. Matrix coefficients : BT.709
  75.  
  76. #Media Info Encode Muxed Audio:
  77.  
  78. General
  79. Unique ID : 58740546549547501285782432703807691146 (0x2C31048B968A569BDA2BBF251F8F198A)
  80. Complete name : C:\Users\hungdaita\Desktop\PhimHD\Den.of.Thieves.2018.Unrated.1080p.BluRay.DTS.x264-DON\Den.of.Thieves.2018.Unrated.1080p.BluRay.DTS.x264-DON.mkv
  81. Format : Matroska
  82. Format version : Version 4 / Version 2
  83. File size : 18.7 GiB
  84. Duration : 2 h 28 min
  85. Overall bit rate : 18.0 Mb/s
  86. Movie name : Den of Thieves 2018 Unrated 1080p BluRay DTS x264-DON
  87. Encoded date : UTC 2018-04-21 12:44:36
  88. Writing application : mkvmerge v22.0.0 ('At The End Of The World') 64-bit
  89. Writing library : libebml v1.3.5 + libmatroska v1.4.8
  90.  
  91. Video
  92. ID : 1
  93. Format : AVC
  94. Format/Info : Advanced Video Codec
  95. Format profile : High@L4.1
  96. Format settings : CABAC / 5 Ref Frames
  97. Format settings, CABAC : Yes
  98. Format settings, RefFrames : 5 frames
  99. Codec ID : V_MPEG4/ISO/AVC
  100. Duration : 2 h 28 min
  101. Bit rate : 16.5 Mb/s
  102. Width : 1 920 pixels
  103. Height : 800 pixels
  104. Display aspect ratio : 2.40:1
  105. Frame rate mode : Constant
  106. Frame rate : 23.976 (24000/1001) FPS
  107. Color space : YUV
  108. Chroma subsampling : 4:2:0
  109. Bit depth : 8 bits
  110. Scan type : Progressive
  111. Bits/(Pixel*Frame) : 0.447
  112. Stream size : 17.1 GiB (92%)
  113. Title : Den of Thieves 2018 Unrated 1080p BluRay DTS x264-DON
  114. Writing library : x264 core 155 r2867+82 a249126 t_mod_Custom_2 [8-bit@all X86_64]
  115. Encoding settings : cabac=1 / ref=5 / deblock=1:-3:-3 / analyse=0x3:0x133 / me=umh / subme=11 / psy=1 / fade_compensate=0.00 / psy_rd=1.00:0.00 / mixed_ref=1 / me_range=48 / chroma_me=1 / trellis=2 / 8x8dct=1 / cqm=0 / deadzone=21,11 / fast_pskip=0 / chroma_qp_offset=-2 / threads=12 / lookahead_threads=2 / sliced_threads=0 / nr=0 / decimate=0 / interlaced=0 / bluray_compat=0 / constrained_intra=0 / fgo=0 / bframes=8 / b_pyramid=2 / b_adapt=2 / b_bias=0 / direct=3 / weightb=1 / open_gop=0 / weightp=2 / keyint=250 / keyint_min=23 / scenecut=40 / intra_refresh=0 / rc_lookahead=60 / rc=crf / mbtree=0 / crf=17.9000 / qcomp=0.65 / qpmin=0:0:0 / qpmax=69:69:69 / qpstep=4 / vbv_maxrate=62500 / vbv_bufsize=78125 / crf_max=0.0 / nal_hrd=none / filler=0 / ip_ratio=1.30 / pb_ratio=1.20 / aq=3:0.80 / aq-sensitivity=10.00 / aq-factor=1.00:1.00:1.00 / aq2=0 / aq3=0 / zones=680,1095,crf=15/1150,10398,crf=16.5/25245,25280,crf=15.5/34695,38927,crf=16/85907,86394,crf=17/86468,89472,crf=17.5/105428,106608,crf=16/106989,107016,crf=17/180953,181057,crf=16/193360,193415,crf=15/198363,201525,crf=16/213915,213960,crf=15
  116. Language : English
  117. Default : Yes
  118. Forced : No
  119. Color range : Limited
  120. Matrix coefficients : BT.709
  121.  
  122. Audio
  123. ID : 2
  124. Format : DTS
  125. Format/Info : Digital Theater Systems
  126. Codec ID : A_DTS
  127. Duration : 2 h 28 min
  128. Bit rate mode : Constant
  129. Bit rate : 1 509 kb/s
  130. Channel(s) : 6 channels
  131. Channel positions : Front: L C R, Side: L R, LFE
  132. Sampling rate : 48.0 kHz
  133. Frame rate : 93.750 FPS (512 SPF)
  134. Bit depth : 24 bits
  135. Compression mode : Lossy
  136. Stream size : 1.57 GiB (8%)
  137. Language : English
  138. Default : Yes
  139. Forced : No
  140.  
  141. Text #1
  142. ID : 3
  143. Format : UTF-8
  144. Codec ID : S_TEXT/UTF8
  145. Codec ID/Info : UTF-8 Plain Text
  146. Duration : 2 h 19 min
  147. Bit rate : 45 b/s
  148. Count of elements : 1541
  149. Stream size : 46.7 KiB (0%)
  150. Language : English
  151. Default : No
  152. Forced : No
  153.  
  154. Text #2
  155. ID : 4
  156. Format : UTF-8
  157. Codec ID : S_TEXT/UTF8
  158. Codec ID/Info : UTF-8 Plain Text
  159. Duration : 2 h 20 min
  160. Bit rate : 49 b/s
  161. Count of elements : 1714
  162. Stream size : 51.1 KiB (0%)
  163. Title : SDH
  164. Language : English
  165. Default : No
  166. Forced : No
  167.  
  168. Text #3
  169. ID : 5
  170. Format : UTF-8
  171. Codec ID : S_TEXT/UTF8
  172. Codec ID/Info : UTF-8 Plain Text
  173. Duration : 2 h 27 min
  174. Bit rate : 39 b/s
  175. Count of elements : 1535
  176. Stream size : 42.8 KiB (0%)
  177. Language : Spanish
  178. Default : No
  179. Forced : No
  180.  
  181. Text #4
  182. ID : 6
  183. Format : ASS
  184. Codec ID : S_TEXT/ASS
  185. Codec ID/Info : Advanced Sub Station Alpha
  186. Duration : 2 h 21 min
  187. Bit rate : 87 b/s
  188. Count of elements : 1546
  189. Compression mode : Lossless
  190. Stream size : 90.7 KiB (0%)
  191. Title : Styled
  192. Language : Vietnamese
  193. Default : No
  194. Forced : No
  195.  
  196. Text #5
  197. ID : 7
  198. Format : UTF-8
  199. Codec ID : S_TEXT/UTF8
  200. Codec ID/Info : UTF-8 Plain Text
  201. Duration : 2 h 21 min
  202. Bit rate : 54 b/s
  203. Count of elements : 1545
  204. Stream size : 56.8 KiB (0%)
  205. Title : Normal
  206. Language : Vietnamese
  207. Default : No
  208. Forced : No
  209.  
  210. Menu
  211. 00:00:00.000 : en:00:00:00.000
  212. 00:09:38.870 : en:00:09:38.870
  213. 00:17:31.968 : en:00:17:31.968
  214. 00:24:03.734 : en:00:24:03.734
  215. 00:30:30.412 : en:00:30:30.412
  216. 00:43:48.084 : en:00:43:48.084
  217. 00:49:54.992 : en:00:49:54.992
  218. 00:58:58.285 : en:00:58:58.285
  219. 01:05:05.109 : en:01:05:05.109
  220. 01:10:42.780 : en:01:10:42.780
  221. 01:16:20.993 : en:01:16:20.993
  222. 01:25:11.481 : en:01:25:11.481
  223. 01:29:54.514 : en:01:29:54.514
  224. 01:35:50.870 : en:01:35:50.870
  225. 01:40:39.909 : en:01:40:39.909
  226. 01:50:22.532 : en:01:50:22.532
  227. 01:58:30.728 : en:01:58:30.728
  228. 02:04:59.909 : en:02:04:59.909
  229. 02:14:28.018 : en:02:14:28.018
  230. 02:22:15.318 : en:02:22:15.318
Advertisement
RAW Paste Data Copied
Advertisement