SHARE
TWEET

Untitled

a guest May 6th, 2019 82 Never
Not a member of Pastebin yet? Sign Up, it unlocks many cool features!
  1.  
  2. Полное имя                               : D:\фильмы\Раздача\Zombieland.Saga.2018.S01.Anilibria.AniDub.Kansai.BDRip.1080p.Deadmauvlad\Zombieland.Saga.2018.S01.Anilibria.AniDub.Kansai.BDRip.1080p.Deadmauvlad.EP.01.mkv
  3. Формат                                   : Matroska
  4. Версия формата                           : Version 2
  5. Размер файла                             : 1,29 Гбайт
  6. Продолжительность                        : 23 м. 42 с.
  7. Режим общего битрейта                    : Переменный
  8. Общий поток                              : 7801 Кбит/сек
  9. Название фильма                          :  Zombieland Saga [S01] BDRip 1080p [Moozzi2] Reliz Deadmauvlad
  10. Дата кодирования                         : UTC 2019-05-06 04:49:14
  11. Программа кодирования                    : mkvmerge v7.8.0 ('River Man') 32bit built on Apr  3 2015 12:11:22
  12. Библиотека кодирования                   : libebml v1.3.1 + libmatroska v1.4.2
  13.  
  14. Видео
  15. Идентификатор                            : 1
  16. Формат                                   : AVC
  17. Формат/Информация                        : Advanced Video Codec
  18. Профиль формата                          : High@L5
  19. Настройки формата                        : CABAC / 5 Ref Frames
  20. Параметр CABAC формата                   : Да
  21. Параметр RefFrames формата               : 5 кадров
  22. Идентификатор кодека                     : V_MPEG4/ISO/AVC
  23. Продолжительность                        : 23 м. 42 с.
  24. Ширина                                   : 1920 пикселей
  25. Высота                                   : 1080 пикселей
  26. Соотношение сторон                       : 16:9
  27. Режим частоты кадров                     : Постоянный
  28. Частота кадров                           : 23,976 (24000/1001) кадра/сек
  29. Цветовое пространство                    : YUV
  30. Субдискретизация насыщенности            : 4:2:0
  31. Битовая глубина                          : 8 бит
  32. Тип развёртки                            : Прогрессивная
  33. Библиотека кодирования                   : x264 core 157 r2935 545de2f
  34. Настройки программы                      : cabac=1 / ref=5 / deblock=1:1:1 / analyse=0x3:0x113 / me=umh / subme=9 / psy=1 / psy_rd=1.00:0.00 / mixed_ref=1 / me_range=32 / chroma_me=1 / trellis=1 / 8x8dct=1 / cqm=0 /
  35. deadzone=21,11 / fast_pskip=0 / chroma_qp_offset=-2 / threads=34 / lookahead_threads=2 / sliced_threads=0 / nr=0 / decimate=1 / interlaced=0 / bluray_compat=0 / stitchable=1 / constrained_intra=0 / bframes=3 /
  36. b_pyramid=2 / b_adapt=2 / b_bias=0 / direct=1 / weightb=1 / open_gop=0 / weightp=1 / keyint=240 / keyint_min=23 / scenecut=40 / intra_refresh=0 / rc_lookahead=40 / rc=crf / mbtree=1 / crf=16.0 / qcomp=0.60 / qpmin=0 /
  37.  qpmax=69 / qpstep=4 / ip_ratio=1.40 / aq=1:1.00
  38. Язык                                     : Japanese
  39. Default                                  : Да
  40. Forced                                   : Нет
  41. Statistics Tags Issue                    : mkvmerge v28.2.0 ('The Awakening') 64-bit 2019-04-28 07:02:09 / mkvmerge v7.8.0 ('River Man') 32bit built on Apr  3 2015 12:11:22 2019-05-06 04:49:14
  42. FromStats_BitRate                        : 5752771
  43. FromStats_Duration                       : 00:23:42.088000000
  44. FromStats_FrameCount                     : 34096
  45. FromStats_StreamSize                     : 1022618426
  46.  
  47. Аудио #1
  48. Идентификатор                            : 2
  49. Формат                                   : AC-3
  50. Формат/Информация                        : Audio Coding 3
  51. Коммерческое название                    : Dolby Digital
  52. Идентификатор кодека                     : A_AC3
  53. Продолжительность                        : 23 м. 42 с.
  54. Вид битрейта                             : Постоянный
  55. Битрейт                                  : 192 Кбит/сек
  56. Каналы                                   : 2 канала
  57. Channel layout                           : L R
  58. Частота                                  : 48,0 КГц
  59. Частота кадров                           : 31,250 кадров/сек (1536 SPF)
  60. Битовая глубина                          : 16 бит
  61. Метод сжатия                             : С потерями
  62. Размер потока                            : 32,5 Мбайт (2%)
  63. Заголовок                                : Сведение озвучки Kansai / Deadmauvlad
  64. Язык                                     : Russian
  65. ServiceKind/String                       : Complete Main
  66. Default                                  : Да
  67. Forced                                   : Да
  68.  
  69. Аудио #2
  70. Идентификатор                            : 3
  71. Формат                                   : AC-3
  72. Формат/Информация                        : Audio Coding 3
  73. Коммерческое название                    : Dolby Digital
  74. Идентификатор кодека                     : A_AC3
  75. Продолжительность                        : 23 м. 42 с.
  76. Вид битрейта                             : Постоянный
  77. Битрейт                                  : 192 Кбит/сек
  78. Каналы                                   : 2 канала
  79. Channel layout                           : L R
  80. Частота                                  : 48,0 КГц
  81. Частота кадров                           : 31,250 кадров/сек (1536 SPF)
  82. Битовая глубина                          : 16 бит
  83. Метод сжатия                             : С потерями
  84. Размер потока                            : 32,5 Мбайт (2%)
  85. Заголовок                                : AniLibria [Сведение озвучки AniLibria / Den4ik]
  86. Язык                                     : Russian
  87. ServiceKind/String                       : Complete Main
  88. Default                                  : Нет
  89. Forced                                   : Нет
  90.  
  91. Аудио #3
  92. Идентификатор                            : 4
  93. Формат                                   : AC-3
  94. Формат/Информация                        : Audio Coding 3
  95. Коммерческое название                    : Dolby Digital
  96. Идентификатор кодека                     : A_AC3
  97. Продолжительность                        : 23 м. 42 с.
  98. Вид битрейта                             : Постоянный
  99. Битрейт                                  : 192 Кбит/сек
  100. Каналы                                   : 2 канала
  101. Channel layout                           : L R
  102. Частота                                  : 48,0 КГц
  103. Частота кадров                           : 31,250 кадров/сек (1536 SPF)
  104. Битовая глубина                          : 16 бит
  105. Метод сжатия                             : С потерями
  106. Размер потока                            : 32,5 Мбайт (2%)
  107. Заголовок                                : Сведение озвучки AniDUB / ReAlety
  108. Язык                                     : Russian
  109. ServiceKind/String                       : Complete Main
  110. Default                                  : Нет
  111. Forced                                   : Нет
  112.  
  113. Аудио #4
  114. Идентификатор                            : 6
  115. Формат                                   : FLAC
  116. Формат/Информация                        : Free Lossless Audio Codec
  117. Идентификатор кодека                     : A_FLAC
  118. Продолжительность                        : 23 м. 42 с.
  119. Вид битрейта                             : Переменный
  120. Каналы                                   : 2 канала
  121. Channel layout                           : L R
  122. Частота                                  : 48,0 КГц
  123. Битовая глубина                          : 24 бит
  124. Метод сжатия                             : Без потерь
  125. Библиотека кодирования                   : libFLAC 1.3.2 (UTC 2017-01-01)
  126. Язык                                     : Japanese
  127. Default                                  : Нет
  128. Forced                                   : Нет
  129. Statistics Tags Issue                    : mkvmerge v28.2.0 ('The Awakening') 64-bit 2019-04-28 07:02:09 / mkvmerge v7.8.0 ('River Man') 32bit built on Apr  3 2015 12:11:22 2019-05-06 04:49:14
  130. FromStats_BitRate                        : 1469331
  131. FromStats_Duration                       : 00:23:42.090000000
  132. FromStats_FrameCount                     : 16666
  133. FromStats_StreamSize                     : 261190233
  134.  
  135. Текст
  136. Идентификатор                            : 5
  137. Формат                                   : ASS
  138. Идентификатор кодека                     : S_TEXT/ASS
  139. Идентификатор кодека/Информация          : Advanced Sub Station Alpha
  140. Метод сжатия                             : Без потерь
  141. Заголовок                                : Русские (AniLibria)
  142. Язык                                     : Russian
  143. Default                                  : Да
  144. Forced                                   : Да
RAW Paste Data
We use cookies for various purposes including analytics. By continuing to use Pastebin, you agree to our use of cookies as described in the Cookies Policy. OK, I Understand
 
Top