SHARE
TWEET

Untitled

a guest May 7th, 2019 23 Never
Not a member of Pastebin yet? Sign Up, it unlocks many cool features!
  1. General
  2. Unique ID                                : 223977461012840534205440385905310475755 (0xA8807D6A4C914EB3BB7236C39EF2A5EB)
  3. Complete name                            : Austin.Powers.The.Spy.Who.Shagged.Me.1999.BluRay.1080p.TrueHD.5.1.VC-1.REMUX-FraMeSToR.mkv
  4. Format                                   : Matroska
  5. Format version                           : Version 4
  6. File size                                : 15.6 GiB
  7. Duration                                 : 1 h 35 min
  8. Overall bit rate mode                    : Variable
  9. Overall bit rate                         : 23.5 Mb/s
  10. Movie name                               : Austin Powers: The Spy Who Shagged Me
  11. Encoded date                             : UTC 2017-11-17 18:52:20
  12. Writing application                      : mkvmerge v17.0.0 ('Be Ur Friend') 64-bit
  13. Writing library                          : libebml v1.3.5 + libmatroska v1.4.8
  14.  
  15. Video
  16. ID                                       : 1
  17. Format                                   : VC-1
  18. Format profile                           : Advanced@L3
  19. Codec ID                                 : V_MS/VFW/FOURCC / WVC1
  20. Codec ID/Hint                            : Microsoft
  21. Duration                                 : 1 h 35 min
  22. Bit rate                                 : 20.7 Mb/s
  23. Width                                    : 1 920 pixels
  24. Height                                   : 1 080 pixels
  25. Display aspect ratio                     : 16:9
  26. Frame rate mode                          : Constant
  27. Frame rate                               : 23.976 (24000/1001) FPS
  28. Color space                              : YUV
  29. Chroma subsampling                       : 4:2:0
  30. Bit depth                                : 8 bits
  31. Scan type                                : Progressive
  32. Compression mode                         : Lossy
  33. Bits/(Pixel*Frame)                       : 0.415
  34. Stream size                              : 13.7 GiB (88%)
  35. Default                                  : Yes
  36. Forced                                   : No
  37.  
  38. Audio #1
  39. ID                                       : 2
  40. Format                                   : MLP FBA
  41. Format/Info                              : Meridian Lossless Packing FBA
  42. Commercial name                          : Dolby TrueHD
  43. Codec ID                                 : A_TRUEHD
  44. Duration                                 : 1 h 35 min
  45. Bit rate mode                            : Variable
  46. Bit rate                                 : 1 798 kb/s
  47. Maximum bit rate                         : 3 267 kb/s
  48. Channel(s)                               : 6 channels
  49. Channel layout                           : L R C LFE Ls Rs
  50. Sampling rate                            : 48.0 kHz
  51. Frame rate                               : 1 200.000 FPS (40 SPF)
  52. Compression mode                         : Lossless
  53. Stream size                              : 1.19 GiB (8%)
  54. Title                                    : TrueHD 5.1
  55. Language                                 : English
  56. Default                                  : Yes
  57. Forced                                   : No
  58.  
  59. Audio #2
  60. ID                                       : 3
  61. Format                                   : AC-3
  62. Format/Info                              : Audio Coding 3
  63. Commercial name                          : Dolby Digital
  64. Codec ID                                 : A_AC3
  65. Duration                                 : 1 h 35 min
  66. Bit rate mode                            : Constant
  67. Bit rate                                 : 640 kb/s
  68. Channel(s)                               : 6 channels
  69. Channel layout                           : L R C LFE Ls Rs
  70. Sampling rate                            : 48.0 kHz
  71. Frame rate                               : 31.250 FPS (1536 SPF)
  72. Bit depth                                : 16 bits
  73. Compression mode                         : Lossy
  74. Stream size                              : 435 MiB (3%)
  75. Title                                    : AC-3 5.1
  76. Language                                 : English
  77. Service kind                             : Complete Main
  78. Default                                  : No
  79. Forced                                   : No
  80.  
  81. Audio #3
  82. ID                                       : 4
  83. Format                                   : AC-3
  84. Format/Info                              : Audio Coding 3
  85. Commercial name                          : Dolby Digital
  86. Codec ID                                 : A_AC3
  87. Duration                                 : 1 h 35 min
  88. Bit rate mode                            : Constant
  89. Bit rate                                 : 192 kb/s
  90. Channel(s)                               : 2 channels
  91. Channel layout                           : L R
  92. Sampling rate                            : 48.0 kHz
  93. Frame rate                               : 31.250 FPS (1536 SPF)
  94. Bit depth                                : 16 bits
  95. Compression mode                         : Lossy
  96. Stream size                              : 131 MiB (1%)
  97. Title                                    : Commentary by Director Jay Roach, Actor/Co-Writer Mike Myers and Co-Writer Mike McCullers
  98. Language                                 : English
  99. Service kind                             : Complete Main
  100. Default                                  : No
  101. Forced                                   : No
  102.  
  103. Text #1
  104. ID                                       : 5
  105. Format                                   : PGS
  106. Codec ID                                 : S_HDMV/PGS
  107. Codec ID/Info                            : Picture based subtitle format used on BDs/HD-DVDs
  108. Duration                                 : 1 h 34 min
  109. Bit rate                                 : 36.9 kb/s
  110. Count of elements                        : 2890
  111. Stream size                              : 24.9 MiB (0%)
  112. Title                                    : English (SDH)
  113. Language                                 : English
  114. Default                                  : No
  115. Forced                                   : No
  116.  
  117. Text #2
  118. ID                                       : 6
  119. Format                                   : PGS
  120. Codec ID                                 : S_HDMV/PGS
  121. Codec ID/Info                            : Picture based subtitle format used on BDs/HD-DVDs
  122. Duration                                 : 1 h 34 min
  123. Bit rate                                 : 33.4 kb/s
  124. Count of elements                        : 2644
  125. Stream size                              : 22.5 MiB (0%)
  126. Title                                    : Spanish (Latin American)
  127. Language                                 : Spanish
  128. Default                                  : No
  129. Forced                                   : No
  130.  
  131. Text #3
  132. ID                                       : 7
  133. Format                                   : PGS
  134. Codec ID                                 : S_HDMV/PGS
  135. Codec ID/Info                            : Picture based subtitle format used on BDs/HD-DVDs
  136. Duration                                 : 1 h 34 min
  137. Bit rate                                 : 31.2 kb/s
  138. Count of elements                        : 2066
  139. Stream size                              : 21.1 MiB (0%)
  140. Title                                    : Portuguese (Brazilian)
  141. Language                                 : Portuguese
  142. Default                                  : No
  143. Forced                                   : No
  144.  
  145. Menu
  146. 00:00:00.000                             : en:Logos/I Married a Fembot
  147. 00:04:41.865                             : en:Opening Titles
  148. 00:07:23.193                             : en:"My Fater Is Evil and Wants to Take Over the World"
  149. 00:10:28.962                             : en:Photo Shoot
  150. 00:12:43.179                             : en:Dr. Evil's Headquarters
  151. 00:17:28.756                             : en:The Time Portal
  152. 00:19:34.632                             : en:Checkmate
  153. 00:21:46.430                             : en:How to Steal Mojo
  154. 00:23:49.345                             : en:Back to the Sixties
  155. 00:25:24.982                             : en:Austin's Pad, 1969
  156. 00:28:34.630                             : en:"Prepare to Die, Powers!"
  157. 00:30:59.775                             : en:A Familiar Fez
  158. 00:34:51.881                             : en:Mister Mojo Risin
  159. 00:39:18.189                             : en:M.O.D. Cryo Chamber
  160. 00:39:58.104                             : en:I'm a Believer
  161. 00:43:13.090                             : en:It Got Weird
  162. 00:45:06.871                             : en:The Shag Pad
  163. 00:49:24.587                             : en:The Alan Parsons Project
  164. 00:51:35.301                             : en:Tracking Fat Bastard
  165. 00:53:35.838                             : en:Sample Analysis
  166. 00:58:33.218                             : en:Dr. Evil's Island
  167. 01:02:05.889                             : en:Just the Two of Us
  168. 01:03:49.868                             : en:Captured
  169. 01:08:29.856                             : en:Unidentified Flying Objects
  170. 01:11:21.527                             : en:The Moon Base
  171. 01:15:15.386                             : en:Attack of Mini-Me
  172. 01:18:28.662                             : en:Felicity or the World
  173. 01:22:43.917                             : en:My Mojo
  174. 01:24:43.412                             : en:Austin's Pad
  175. 01:28:05.071                             : en:Another Ufo Sighting/End Credits
RAW Paste Data
We use cookies for various purposes including analytics. By continuing to use Pastebin, you agree to our use of cookies as described in the Cookies Policy. OK, I Understand
Top