Secasa

sueños

Sep 2nd, 2014
268
Never
Not a member of Pastebin yet? Sign Up, it unlocks many cool features!
  1. Complete name : E:\Pujades\Sfrd419948ma\Más allá de los sueños [BDRip m1080p][Dual AC3][Subs][Fantasía][1998][Sfrd].mkv
  2. Format : Matroska
  3. Format version : Version 4 / Version 2
  4. File size : 4.17 GiB
  5. Duration : 1h 53mn
  6. Overall bit rate : 5 244 Kbps
  7. Movie name : Más allá de los sueños [Sfrd]
  8. Encoded date : UTC 2014-09-02 07:48:13
  9. Writing application : mkvmerge v7.0.0 ('Where We Going') 64bit built on Jun 9 2014 15:16:27
  10. Writing library : libebml v1.3.0 + libmatroska v1.4.1
  11. DURATION : 01:45:07.385000000
  12. NUMBER_OF_FRAMES : 2652
  13. NUMBER_OF_BYTES : 10424910
  14. _STATISTICS_WRITING_APP : mkvmerge v7.0.0 ('Where We Going') 64bit built on Jun 9 2014 15:16:27
  15. _STATISTICS_WRITING_DATE_UTC : 2014-09-02 07:48:13
  16. _STATISTICS_TAGS : BPS DURATION NUMBER_OF_FRAMES NUMBER_OF_BYTES
  17.  
  18. Video
  19. ID : 1
  20. Format : AVC
  21. Format/Info : Advanced Video Codec
  22. Format profile : High@L4.0
  23. Format settings, CABAC : Yes
  24. Format settings, ReFrames : 3 frames
  25. Codec ID : V_MPEG4/ISO/AVC
  26. Duration : 1h 53mn
  27. Bit rate : 4 052 Kbps
  28. Width : 1 916 pixels
  29. Height : 816 pixels
  30. Display aspect ratio : 2.35:1
  31. Frame rate mode : Constant
  32. Frame rate : 23.976 fps
  33. Color space : YUV
  34. Chroma subsampling : 4:2:0
  35. Bit depth : 8 bits
  36. Scan type : Progressive
  37. Bits/(Pixel*Frame) : 0.108
  38. Stream size : 3.22 GiB (77%)
  39. Title : Más allá de los sueños [Sfrd]
  40. Writing library : x264 core 130 r2273 b3065e6
  41. Encoding settings : cabac=1 / ref=4 / deblock=1:-1:-1 / analyse=0x3:0x113 / me=hex / subme=9 / psy=1 / psy_rd=1,00:0,15 / mixed_ref=1 / me_range=16 / chroma_me=1 / trellis=2 / 8x8dct=1 / cqm=0 / deadzone=21,11 / fast_pskip=1 / chroma_qp_offset=-3 / threads=12 / lookahead_threads=1 / sliced_threads=0 / nr=0 / decimate=1 / interlaced=0 / bluray_compat=0 / constrained_intra=0 / bframes=4 / b_pyramid=1 / b_adapt=2 / b_bias=0 / direct=1 / weightb=1 / open_gop=0 / weightp=1 / keyint=240 / keyint_min=24 / scenecut=40 / intra_refresh=0 / rc_lookahead=40 / rc=crf / mbtree=1 / crf=22,0 / qcomp=0,60 / qpmin=0 / qpmax=69 / qpstep=4 / ip_ratio=1,40 / aq=1:1,00
  42. Language : English
  43. Default : Yes
  44. Forced : No
  45. Color primaries : BT.709
  46. Transfer characteristics : BT.709
  47. Matrix coefficients : BT.709
  48.  
  49. Audio #1
  50. ID : 2
  51. Format : AC-3
  52. Format/Info : Audio Coding 3
  53. Mode extension : CM (complete main)
  54. Format settings, Endianness : Big
  55. Codec ID : A_AC3
  56. Duration : 1h 53mn
  57. Bit rate mode : Constant
  58. Bit rate : 448 Kbps
  59. Channel(s) : 6 channels
  60. Channel positions : Front: L C R, Side: L R, LFE
  61. Sampling rate : 48.0 KHz
  62. Bit depth : 16 bits
  63. Compression mode : Lossy
  64. Stream size : 364 MiB (9%)
  65. Title : AC3 Castellano
  66. Language : Spanish
  67. Default : Yes
  68. Forced : No
  69.  
  70. Audio #2
  71. ID : 3
  72. Format : AC-3
  73. Format/Info : Audio Coding 3
  74. Mode extension : CM (complete main)
  75. Format settings, Endianness : Big
  76. Codec ID : A_AC3
  77. Duration : 1h 53mn
  78. Bit rate mode : Constant
  79. Bit rate : 640 Kbps
  80. Channel(s) : 6 channels
  81. Channel positions : Front: L C R, Side: L R, LFE
  82. Sampling rate : 48.0 KHz
  83. Bit depth : 16 bits
  84. Compression mode : Lossy
  85. Stream size : 521 MiB (12%)
  86. Title : AC3 Ingles
  87. Language : English
  88. Default : No
  89. Forced : No
  90.  
  91. Text #1
  92. ID : 4
  93. Format : UTF-8
  94. Codec ID : S_TEXT/UTF8
  95. Codec ID/Info : UTF-8 Plain Text
  96. Title : Castellano Forzados
  97. Language : Spanish
  98. Default : Yes
  99. Forced : Yes
  100.  
  101. Text #2
  102. ID : 5
  103. Format : UTF-8
  104. Codec ID : S_TEXT/UTF8
  105. Codec ID/Info : UTF-8 Plain Text
  106. Title : Castellano
  107. Language : Spanish
  108. Default : No
  109. Forced : No
  110.  
  111. Text #3
  112. ID : 6
  113. Format : UTF-8
  114. Codec ID : S_TEXT/UTF8
  115. Codec ID/Info : UTF-8 Plain Text
  116. Title : Ingles
  117. Language : English
  118. Default : No
  119. Forced : No
  120.  
  121. Text #4
  122. ID : 7
  123. Format : PGS
  124. Muxing mode : zlib
  125. Codec ID : S_HDMV/PGS
  126. Codec ID/Info : The same subtitle format used on BDs/HD-DVDs
  127. Title : Castellano Forzados
  128. Language : Spanish
  129. Default : No
  130. Forced : No
  131.  
  132. Text #5
  133. ID : 8
  134. Format : PGS
  135. Muxing mode : zlib
  136. Codec ID : S_HDMV/PGS
  137. Codec ID/Info : The same subtitle format used on BDs/HD-DVDs
  138. Title : Castellano
  139. Language : Spanish
  140. Default : No
  141. Forced : No
  142.  
  143. Text #6
  144. ID : 9
  145. Format : PGS
  146. Muxing mode : zlib
  147. Codec ID : S_HDMV/PGS
  148. Codec ID/Info : The same subtitle format used on BDs/HD-DVDs
  149. Title : Ingles
  150. Language : English
  151. Default : No
  152. Forced : No
RAW Paste Data