SHARE
TWEET

Anime House Project

Eriol-kun Jul 15th, 2011 286 Never
Not a member of Pastebin yet? Sign Up, it unlocks many cool features!
  1. REM GENRE Anime
  2. REM DATE 2009-08-26
  3. REM DISCID A10F290C
  4. REM COMMENT ExactAudioCopy v0.99pb5
  5. PERFORMER "IOSYS"
  6. TITLE "ANIME HOUSE PROJECT ――神曲 selection vol.1――"
  7. FILE "ATCD-21001.tak" WAVE
  8.   TRACK 01 AUDIO
  9.     TITLE "Don't say “lazy”"
  10.     PERFORMER "anporin"
  11.     INDEX 01 00:00:00
  12.   TRACK 02 AUDIO
  13.     TITLE "空色デイズ"
  14.     PERFORMER "miko+Resurrection"
  15.     INDEX 01 05:11:00
  16.   TRACK 03 AUDIO
  17.     TITLE "残酷な天使のテーゼ"
  18.     PERFORMER "A~YA"
  19.     INDEX 01 10:48:00
  20.   TRACK 04 AUDIO
  21.     TITLE "輪舞 - revolution"
  22.     PERFORMER "ひらぶきゆうこ"
  23.     INDEX 01 15:30:00
  24.   TRACK 05 AUDIO
  25.     TITLE "ブルーウォーター"
  26.     PERFORMER "ビートまりお"
  27.     INDEX 01 20:57:00
  28.   TRACK 06 AUDIO
  29.     TITLE "Believe"
  30.     PERFORMER "野宮あゆみ"
  31.     INDEX 01 25:56:38
  32.   TRACK 07 AUDIO
  33.     TITLE "ETERNAL BLAZE"
  34.     PERFORMER "あさな"
  35.     INDEX 01 30:15:38
  36.   TRACK 08 AUDIO
  37.     TITLE "夢は終わらない~こぼれ落ちる時の雫~"
  38.     PERFORMER "anporin"
  39.     INDEX 01 37:08:01
  40.   TRACK 09 AUDIO
  41.     TITLE "創聖のアクエリオン"
  42.     PERFORMER "ichigo"
  43.     INDEX 01 42:27:39
  44.   TRACK 10 AUDIO
  45.     TITLE "Butter-Fly"
  46.     PERFORMER "nyanyannya"
  47.     INDEX 01 48:26:73
  48.   TRACK 11 AUDIO
  49.     TITLE "夢を信じて"
  50.     PERFORMER "witch"
  51.     INDEX 01 53:56:73
  52.   TRACK 12 AUDIO
  53.     TITLE "鳥の詩"
  54.     PERFORMER "片霧烈火"
  55.     INDEX 01 58:40:36
RAW Paste Data
We use cookies for various purposes including analytics. By continuing to use Pastebin, you agree to our use of cookies as described in the Cookies Policy. OK, I Understand
Top