Advertisement
Henry_Kr

DB-M2

Mar 10th, 2024
108
0
Never
Not a member of Pastebin yet? Sign Up, it unlocks many cool features!
text 5.14 KB | None | 0 0
  1. Video
  2. ID : 1
  3. Format : AVC
  4. Format/Info : Advanced Video Codec
  5. Format profile : High@L4.1
  6. Format settings : CABAC / 4 Ref Frames
  7. Format settings, CABAC : Yes
  8. Format settings, Reference : 4 frames
  9. Codec ID : V_MPEG4/ISO/AVC
  10. Duration : 44 min 51 s
  11. Bit rate : 12.0 Mb/s
  12. Width : 1 920 pixels
  13. Height : 1 080 pixels
  14. Display aspect ratio : 16:9
  15. Frame rate mode : Constant
  16. Frame rate : 23.933 FPS
  17. Color space : YUV
  18. Chroma subsampling : 4:2:0
  19. Bit depth : 8 bits
  20. Scan type : Progressive
  21. Bits/(Pixel*Frame) : 0.242
  22. Stream size : 3.76 GiB (88%)
  23. Title : Dragon.Ball.Filme.2.A.Bela.Adormecida.No.Castelo.Amaldiçoado.1080p.35Mm.4K-Scan.[CartoonNOW]
  24. Writing library : x264 core 164 r3065 ae03d92
  25. Encoding settings : cabac=1 / ref=3 / deblock=1:0:0 / analyse=0x3:0x113 / me=hex / subme=7 / psy=1 / psy_rd=1.00:0.00 / mixed_ref=1 / me_range=16 / chroma_me=1 / trellis=1 / 8x8dct=1 / cqm=0 / deadzone=21,11 / fast_pskip=1 / chroma_qp_offset=-2 / threads=24 / lookahead_threads=4 / sliced_threads=0 / nr=0 / decimate=1 / interlaced=0 / bluray_compat=0 / constrained_intra=0 / bframes=3 / b_pyramid=2 / b_adapt=1 / b_bias=0 / direct=1 / weightb=1 / open_gop=0 / weightp=2 / keyint=240 / keyint_min=24 / scenecut=40 / intra_refresh=0 / rc_lookahead=40 / rc=2pass / mbtree=1 / bitrate=12000 / ratetol=1.0 / qcomp=0.60 / qpmin=0 / qpmax=69 / qpstep=4 / cplxblur=20.0 / qblur=0.5 / vbv_maxrate=62500 / vbv_bufsize=78125 / nal_hrd=none / filler=0 / ip_ratio=1.40 / aq=1:1.00
  26. Language : Japanese
  27. Default : Yes
  28. Forced : No
  29. Color range : Limited
  30. Color primaries : BT.709
  31. Transfer characteristics : BT.709
  32. Matrix coefficients : BT.709
  33.  
  34. Audio #1
  35. ID : 2
  36. Format : E-AC-3
  37. Format/Info : Enhanced AC-3
  38. Commercial name : Dolby Digital Plus
  39. Codec ID : A_EAC3
  40. Duration : 44 min 50 s
  41. Bit rate mode : Constant
  42. Bit rate : 224 kb/s
  43. Channel(s) : 2 channels
  44. Channel layout : L R
  45. Sampling rate : 48.0 kHz
  46. Frame rate : 31.250 FPS (1536 SPF)
  47. Compression mode : Lossy
  48. Stream size : 71.8 MiB (2%)
  49. Title : E-AC3 2.0 (Álamo)
  50. Language : Portuguese
  51. Service kind : Complete Main
  52. Default : Yes
  53. Forced : No
  54.  
  55. Audio #2
  56. ID : 3
  57. Format : FLAC
  58. Format/Info : Free Lossless Audio Codec
  59. Codec ID : A_FLAC
  60. Duration : 44 min 50 s
  61. Bit rate mode : Variable
  62. Bit rate : 539 kb/s
  63. Channel(s) : 2 channels
  64. Channel layout : L R
  65. Sampling rate : 48.0 kHz
  66. Frame rate : 11.719 FPS (4096 SPF)
  67. Bit depth : 16 bits
  68. Compression mode : Lossless
  69. Stream size : 173 MiB (4%)
  70. Title : FLAC 2.0 (BKS)
  71. Writing library : libFLAC 1.3.1 (UTC 2014-11-25)
  72. Language : Portuguese
  73. Default : No
  74. Forced : No
  75.  
  76. Audio #3
  77. ID : 4
  78. Format : FLAC
  79. Format/Info : Free Lossless Audio Codec
  80. Codec ID : A_FLAC
  81. Duration : 44 min 50 s
  82. Bit rate mode : Variable
  83. Bit rate : 928 kb/s
  84. Channel(s) : 2 channels
  85. Channel layout : L R
  86. Sampling rate : 48.0 kHz
  87. Frame rate : 11.719 FPS (4096 SPF)
  88. Bit depth : 24 bits
  89. Compression mode : Lossless
  90. Stream size : 298 MiB (7%)
  91. Title : FLAC 2.0
  92. Writing library : libFLAC 1.3.1 (UTC 2014-11-25)
  93. Language : Japanese
  94. Default : No
  95. Forced : No
  96.  
  97. Text
  98. ID : 5
  99. Format : ASS
  100. Codec ID : S_TEXT/ASS
  101. Codec ID/Info : Advanced Sub Station Alpha
  102. Duration : 42 min 38 s
  103. Bit rate : 89 b/s
  104. Count of elements : 395
  105. Compression mode : Lossless
  106. Stream size : 28.1 KiB (0%)
  107. Title : Completa
  108. Language : Portuguese
  109. Default : No
  110. Forced : No
  111.  
  112. Menu
  113. 00:00:00.000 : en:Chapter 01
  114. 00:10:49.357 : en:Chapter 02
  115. 00:18:11.173 : en:Chapter 03
  116. 00:29:01.782 : en:Chapter 04
  117. 00:37:16.067 : en:Chapter 05
  118.  
Advertisement
Add Comment
Please, Sign In to add comment
Advertisement